慢慢游社区

 找回密码
 我要注册
搜索
查看: 339|回复: 24

[日本下载] [百度云][1983][忍者小英雄 - 伊賀野カバ丸[第01话]( 面白まじめジャ忍者参上 )[国语无字][MP4/288M]

[复制链接]

签到天数: 263 天

[LV.8]以坛为家I

13

主题

511

帖子

1万

积分

Rank: 32Rank: 32Rank: 32Rank: 32Rank: 32Rank: 32Rank: 32Rank: 32

阅读权限
90
游币
10868
精品值
1869
热心值
0
分享值
17
在线时间
143 小时
注册时间
2015-2-14
最后登录
2021-3-7

活跃会员

发表于 2021-2-23 06:19:04 | 显示全部楼层 |阅读模式
慢慢游社区mmy.la_src=http://sd.china.com.cn/uploadfile/2015/0916/20150916105901187.jpg&refer=http.jpg 慢慢游社区mmy.la_src=http://img3.doubanio.com/view/photo/l/public/p2424355130.jpg&refer=http://im.jpg 慢慢游社区mmy.la_src=http://img3.doubanio.com/view/photo/l/public/p2423259933.jpg&refer=http://im.jpg 慢慢游社区mmy.la_src=http://i1.s.hjfile.cn/entry/201501/fab68e86-0362-4d23-96fe-8b05af2c73c2.jpg.jpg 慢慢游社区mmy.la_忍者小英雄-伊賀野カバ丸 第01話.png
《忍者小英雄》原名《伊贺野カバ丸》,是80年代日本风靡一时的搞笑、热血型漫画,作者亚月裕,东映株式会社和东京电视台联合翻拍成动画作品,由石家庄电视台引进播放过。题目的意思是小雄的全名伊贺野郎,动画版本配音男主角改叫小熊一诺,女主角叫梅儿,那个完美的帅哥是叫西俊~~。
中文名忍者小英雄原版名称<伊贺野カバ丸>作    者亚月裕类    型热血搞笑地    区日本装    帧平装配    音中尾隆圣作者职业少女漫画作家纸    张胶版纸
目录
1 情节简介
2 动画目录
3 关键词
情节简介编辑
伊贺野郎CV中尾隆圣


伊贺野カバ丸是一个名忍者的后代。特别的能吃,尤其爱吃炒面和大虾。
他从小就没有父母,在很小的时候就跟他的爷爷在深山里修行。
虽说是修行,但他一点儿也不喜欢他的爷爷,爷爷因为很多事而打他。要知道他的爷爷也是个忍术高手。他很想从他爷爷的魔爪中解放出来,结果有一天,他的爷爷因为吃东西而噎死了。他不但没有伤心,反而为此高兴得手舞足蹈。但是他的爷爷在死之前又把他交给了初恋情人——一个6、70岁的老婆婆。这个老婆婆可不得了,自己办了一所私立中学。而她有一位可爱的孙女——兰。当伊贺第一次见她时,就深深的爱上她了。可是兰却不喜欢伊贺。
为什么?伊贺特别能吃。因为爷爷在的时候老是吃不饱(爷爷跟他抢着吃,不然怎么会噎死)。当在爷爷的初恋情人那里住下后,天天有吃的。但是他还是觉得吃不够。上学要带便当,伊贺觉得便当装得太少。结果他自己找了个垃圾筒来装吃的。
伊贺野郎和兰的故事就此开始。
如同相近年代另一部神作《灌篮高手》一样,里面有一位天生的体力旺盛的搞笑主角(如同樱木花道)、一位近乎完美的王子型帅哥西俊(如同流川枫)、一位影响主角剧情发展的美少女梅儿(如同晴子),一部充满激情热血又不失搞笑的漫画作品,当时鼎盛大名!然而如同大多数日本动漫作品一样,到了后期,没能摆脱日渐没落的局势,以至于漫画作品结尾草草收场,动画作品无限期to be continue......著名的《灌篮高手》也是如此,只有《七龙珠》除外(动画作品不但全部出完,还额外自行编出GT篇章),《圣斗士》也一样,全部出完后,车田又继续创作ND,还有同人的LC,都是很不错的。虽然如此,70后80后的人们依然无法忘记这部伟大的漫画当时带给我们的感动!当我们想起“忍者螃蟹跑法、炒面、充满体力的小熊、人气超高的海雅,”一种说不出的感动便涌上我们心头!



General
Complete name                  忍者小英雄-伊賀野カバ丸 第01話 国语无字.mp4
Format                                   : MPEG-4
Format profile                           : Base Media
Codec ID                                 : isom (isom/iso2/avc1/mp41)
File size                                : 288 MiB
Duration                                 : 24 min 41 s
Overall bit rate mode                    : Variable
Overall bit rate                         : 1 630 kb/s
Writing application                      : Lavf57.83.100


Video
ID                                       : 1
Format                                   : AVC
Format/Info                              : Advanced Video Codec
Format profile                           : Main@L3
Format settings                          : CABAC / 1 Ref Frames
Format settings, CABAC                   : Yes
Format settings, Reference frames        : 1 frame
Codec ID                                 : avc1
Codec ID/Info                            : Advanced Video Coding
Duration                                 : 24 min 41 s
Bit rate mode                            : Variable
Bit rate                                 : 1 498 kb/s
Maximum bit rate                         : 4 396 kb/s
Width                                    : 640 pixels
Height                                   : 480 pixels
Display aspect ratio                     : 4:3
Frame rate mode                          : Constant
Frame rate                               : 23.000 FPS
Color space                              : YUV
Chroma subsampling                       : 4:2:0
Bit depth                                : 8 bits
Scan type                                : Progressive
Bits/(Pixel*Frame)                       : 0.212
Stream size                              : 264 MiB (92%)
Color range                              : Limited
Transfer characteristics                 : BT.709
Matrix coefficients                      : BT.709
Codec configuration box                  : avcC


Audio
ID                                       : 2
Format                                   : AAC LC
Format/Info                              : Advanced Audio Codec Low Complexity
Codec ID                                 : mp4a-40-2
Duration                                 : 24 min 41 s
Bit rate mode                            : Constant
Bit rate                                 : 128 kb/s
Channel(s)                               : 2 channels
Channel layout                           : L R
Sampling rate                            : 48.0 kHz
Frame rate                               : 46.875 FPS (1024 SPF)
Compression mode                         : Lossy
Stream size                              : 22.7 MiB (8%)
Default                                  : Yes
Alternate group                          : 1
动画目录编辑
1  ( 面白まじめジャ忍者参上 ) 22m20.10.1983
2 ( 思いがけずに人気者!? ) 23m27.10.1983
3 episode 3 ( ファイト一発!ヤキソバD )03.11.1983
4 episode 4 ( スイート麻衣せんカバ丸君 )10.11.1983
5 episode 5 ( 目白発见伝 )17.11.1983
6 episode 6 ( 思い悩んで変身ゲーム )24.11.1983
7 episode 7 ( 焼きそばランナーの孤独 )01.12.1983
8 episode 8 ( 外伝!忍びの里の二人 )08.12.1983
9 episode 9 ( 魅せます!くの一かおる )15.12.1983
10 episode 10 ( 圣夜のジクソーラブ )22.12.1983
11 episode 11 ( 秘伝!生き返りの妙薬 )29.12.1983
12 episode 12 ( どっきりザガードマン )05.01.1984
13 episode 13 ( ベッドで沈寝を抱かないで )12.01.1984
14 episode 14 ( めぐり逢いスターライト )19.01.1984
15 episode 15 ( アスレチックIN伊贺 )26.01.1984
16 episode 16 ( 忍びの里の兄弟仁义 )02.02.1984
17 episode 17 ( 悩みます麻衣LOVE )09.02.1984
18 episode 18 ( 岚を呼ぶ男! )16.02.1984
19 episode 19 ( 麻衣の探侦物语 )23.02.1984
20 episode 20 ( 秘(まるひ)初恋!ランスー表 )01.03.1984
21 episode 21 ( 秘术!焼きソバ野球の怪 )08.03.1984
22 episode 22 ( 岚の麻衣ジャック )15.03.1984
23 ( 夜雾の対决!男のケジメ)22.03.1984
24 episode 24 ( いわゆるひとつのサヨナラDAY )29.03.1984

慢慢游社区mmy.la_360截图20210223041638070.jpg
该片网络上存在的要么国语中字渣画质
要么日语无字
要么日语英字
要么日语希腊字
看得是快要抓破皮,特地试水做了一集,对比网络上现存的一集国语无字版本(后半节完全对不上),
本帖是24话中的第一话( 面白まじめジャ忍者参上 ) 高清国语无字,逐句逐词对口型检验的音轨,增加了看过的大部分人听过的热血沸腾的前奏OP,折腾十几个小时终于可以发帖,我只能说再也不敢了


链接:>>点击进入百度云下载<<(←购买前请先验证分享链接是否有效)
此处内容付费可见

向楼主支付【游币】或成为【特权组】才能显示 已有 5 人购买 

支付 80 游币 成为特权组
楼主精华帖
回复

使用道具 举报

签到天数: 15 天

[LV.4]偶尔看看III

1

主题

203

帖子

1367

积分

Rank: 8Rank: 8

阅读权限
50
游币
1020
精品值
0
热心值
0
分享值
0
在线时间
144 小时
注册时间
2017-6-20
最后登录
2021-3-8
发表于 2021-2-23 08:53:07 | 显示全部楼层
谢谢分享  请问就一集么     
回复 支持 反对

使用道具 举报

签到天数: 113 天

[LV.6]常住居民II

325

主题

538

帖子

4万

积分

Rank: 64Rank: 64Rank: 64Rank: 64Rank: 64Rank: 64Rank: 64Rank: 64Rank: 64Rank: 64Rank: 64Rank: 64Rank: 64Rank: 64Rank: 64Rank: 64

阅读权限
110
游币
46475
精品值
60
热心值
0
分享值
372
在线时间
76 小时
注册时间
2020-3-31
最后登录
2021-3-7

最佳新人

发表于 2021-2-23 08:58:16 | 显示全部楼层
只有一集啊,吃不饱啊
回复 支持 反对

使用道具 举报

签到天数: 479 天

[LV.9]以坛为家II

2

主题

687

帖子

2569

积分

Rank: 8Rank: 8

阅读权限
50
游币
1558
精品值
50
热心值
0
分享值
0
在线时间
224 小时
注册时间
2019-3-24
最后登录
2021-3-8
发表于 2021-2-23 09:01:49 | 显示全部楼层
我没看过啊,跟楼主请教一下,这个有漫画版原作吗?
回复 支持 反对

使用道具 举报

签到天数: 506 天

[LV.9]以坛为家II

0

主题

521

帖子

2302

积分

Rank: 8Rank: 8

阅读权限
50
游币
1685
精品值
0
热心值
0
分享值
0
在线时间
96 小时
注册时间
2019-5-28
最后登录
2021-3-8
发表于 2021-2-23 09:18:01 | 显示全部楼层
这动画肚子笑痛
回复 支持 1 反对 0

使用道具 举报

签到天数: 347 天

[LV.8]以坛为家I

325

主题

1080

帖子

3万

积分

Rank: 32Rank: 32Rank: 32Rank: 32Rank: 32Rank: 32Rank: 32Rank: 32

阅读权限
90
游币
33287
精品值
0
热心值
0
分享值
182
在线时间
613 小时
注册时间
2015-3-16
最后登录
2021-3-8

最佳新人活跃会员分享达人

发表于 2021-2-23 09:45:39 | 显示全部楼层
这东西我收了!谢谢楼主!有慢慢游真好!
回复 支持 反对

使用道具 举报

签到天数: 1353 天

[LV.10]以坛为家III

0

主题

1691

帖子

4528

积分

Rank: 16Rank: 16Rank: 16Rank: 16

阅读权限
70
游币
2068
精品值
0
热心值
0
分享值
0
在线时间
769 小时
注册时间
2014-9-26
最后登录
2021-3-8
发表于 2021-2-23 09:51:57 | 显示全部楼层
哇,我天,一起回忆童年了我们。
回复 支持 反对

使用道具 举报

签到天数: 396 天

[LV.9]以坛为家II

0

主题

661

帖子

1534

积分

Rank: 8Rank: 8

阅读权限
50
游币
699
精品值
0
热心值
0
分享值
0
在线时间
174 小时
注册时间
2019-8-3
最后登录
2021-3-8
发表于 2021-2-23 10:10:22 | 显示全部楼层
支持一下,正在做这个高清版和小飞龙的高清版,还是怀旧OP和END有味道
回复 支持 1 反对 0

使用道具 举报

签到天数: 263 天

[LV.8]以坛为家I

13

主题

511

帖子

1万

积分

Rank: 32Rank: 32Rank: 32Rank: 32Rank: 32Rank: 32Rank: 32Rank: 32

阅读权限
90
游币
10868
精品值
1869
热心值
0
分享值
17
在线时间
143 小时
注册时间
2015-2-14
最后登录
2021-3-7

活跃会员

 楼主| 发表于 2021-2-23 13:05:33 | 显示全部楼层
蜗牛哥 发表于 2021-2-23 10:10
支持一下,正在做这个高清版和小飞龙的高清版,还是怀旧OP和END有味道

期待你的好消息,这个很多年了
回复 支持 反对

使用道具 举报

签到天数: 263 天

[LV.8]以坛为家I

13

主题

511

帖子

1万

积分

Rank: 32Rank: 32Rank: 32Rank: 32Rank: 32Rank: 32Rank: 32Rank: 32

阅读权限
90
游币
10868
精品值
1869
热心值
0
分享值
17
在线时间
143 小时
注册时间
2015-2-14
最后登录
2021-3-7

活跃会员

 楼主| 发表于 2021-2-23 13:07:51 | 显示全部楼层
plbyp1977 发表于 2021-2-23 08:58
只有一集啊,吃不饱啊

国语版本搜一下一堆,不介意画质的将就可以看,日文棒棒的你就可以傲视网络随便看
回复 支持 反对

使用道具 举报

回帖须知
本站严禁灌水回复以及讽刺辱骂分享者的行为,轻者扣分警告,重者直接永久封禁。发帖前请详读:点击进入 。以免永久封禁。
 懒得打字?点击快捷回复➔➔ 
您需要登录后才可以回帖 登录 | 我要注册

本版积分规则

小黑屋|手机版|慢慢游社区 ( 站务处理service@mmyfilm.com )

GMT+8, 2021-3-9 00:37 , Processed in 0.219755 second(s), 34 queries .

Powered by Discuz! X3.4

© 2001-2013 Comsenz Inc.

快速回复 返回顶部 返回列表