慢慢游社区

 找回密码
 我要注册
GOOVIS蓝光播放
搜索
查看: 203|回复: 8

[喜剧] 【磁力】【破坏之王】【1994 中国香港】【mkv 5.09g 720p】【简繁中字 国粤双语】【97分钟 无水印台标】【周星驰 吴孟达 钟丽缇】

[复制链接]

签到天数: 27 天

[LV.4]偶尔看看III

21

主题

164

帖子

887

积分

Rank: 4

阅读权限
30
游币
538
精品值
0
热心值
0
分享值
36
在线时间
113 小时
注册时间
2020-7-22
最后登录
2020-9-29

最佳新人

发表于 2020-9-6 14:16:45 | 显示全部楼层 |阅读模式
[free]
慢慢游社区mmy.la_p2165828468.jpg
导演: 李力持
编剧: 谷德昭
主演: 周星驰 / 吴孟达 / 钟丽缇 / 林国斌 / 李力持 / 古巨基 / 郑祖 / 黄一山 / 黄一飞 / 林雪 / 张学友 / 梁荣忠 / 谷德昭 / 黎彼得 / 秦沛 / 郑家生 / 周比利
类型: 喜剧 / 动作
制片国家/地区: 中国香港
语言: 国粤双语
上映日期: 1994-02-03(中国香港)
片长: 97分钟(蓝光修复版)
又名: 古拳决战空手道 / Love on Delivery
IMDb链接: tt0110852
破坏之王的剧情简介 ·· · · · ·
  快餐店打工仔阿银(周星驰)某日送快餐时邂逅正在武术训练馆学习日本空手道的阿丽(钟丽缇),对其一见钟情。遭遇同样喜欢阿缇的武馆教练林国斌的羞辱后,自觉太弱小的阿银决定拜自称为“魔鬼筋肉人”的达叔(吴孟达)为师,达叔一开始只想骗取阿银的钱财,终被其善良和执着打动,开始教授其中国古拳法。
  阿丽遇坏人拦截,阿银头戴加菲猫面具出手相救,情急之下从高台上抱着歹徒滚下,却由此创出了“无敌风火轮”,不料事后被林国斌领功。为了证实自己的实力,阿银报名参加了搏击比赛与林国斌决斗,想借此再赢阿丽芳心。
慢慢游社区mmy.la_Love.on.Delivery.1994.720p.BluRay.x264-WiKi.mkv_20200906_135542.755.jpg 慢慢游社区mmy.la_Love.on.Delivery.1994.720p.BluRay.x264-WiKi.mkv_20200906_135608.731.jpg 慢慢游社区mmy.la_Love.on.Delivery.1994.720p.BluRay.x264-WiKi.mkv_20200906_135901.987.jpg 慢慢游社区mmy.la_Love.on.Delivery.1994.720p.BluRay.x264-WiKi.mkv_20200906_135906.310.jpg 慢慢游社区mmy.la_Love.on.Delivery.1994.720p.BluRay.x264-WiKi.mkv_20200906_135944.790.jpg 慢慢游社区mmy.la_Love.on.Delivery.1994.720p.BluRay.x264-WiKi.mkv_20200906_140044.445.jpg
General
File size                        : 5.09 GiB
Duration                         : 1h 37mn
Overall bit rate                 : 7 513 Kbps
Encoded date                     : UTC 2016-02-04 12:33:25
Writing application              : mkvmerge v5.8.0 ('No Sleep /Pillow') built on Sep  2 2012 15:37:04
Writing library                  : libebml v1.2.3 +libmatroska v1.3.0
Video
ID                               : 1
Format                           : AVC
Format/Info                      : Advanced Video Codec
Format settings, CABAC           : Yes
Format settings, ReFrames        : 9 frames
Codec ID                         : V_MPEG4/ISO/AVC
Duration                         : 1h 37mn
Bit rate                         : 7 000 Kbps
Width                            : 1 280 pixels
Height                           : 690 pixels
Display aspect ratio             : 1.855
Frame rate                       : 24.000 fps
Color space                      : YUV
Chroma subsampling               : 4:2:0
Bit depth                        : 8 bits
Scan type                        : Progressive
Bits/(Pixel*Frame)               : 0.330
Stream size                      : 4.64 GiB (91%)
Writing library                  : x264 core 142 r2431+42c69a006 tMod [8-bit@all X86_64]
Audio #1
ID                               : 2
Format                           : AC-3
Format/Info                      : Audio Coding 3
Mode extension                   : CM (complete main)
Codec ID                         : A_AC3
Duration                         : 1h 37mn
Bit rate mode                    : Constant
Bit rate                         : 256 Kbps
Channel(s)                       : 2 channels
Channel positions                : Front: L R
Sampling rate                    : 48.0 KHz
Bit depth                        : 16 bits
Compression mode                 : Lossy
Stream size                      : 178 MiB (3%)
Title                            : Cantonese
Language                         : Chinese
Audio #2
ID                               : 3
Format                           : AC-3
Format/Info                      : Audio Coding 3
Mode extension                   : CM (complete main)
Codec ID                         : A_AC3
Duration                         : 1h 37mn
Bit rate mode                    : Constant
Bit rate                         : 256 Kbps
Channel(s)                       : 2 channels
Channel positions                : Front: L R
Sampling rate                    : 48.0 KHz
Bit depth                        : 16 bits
Compression mode                 : Lossy
Stream size                      : 178 MiB (3%)
Title                            : Mandarin
Language                         : Chinese
Text #1
ID                               : 4
Format                           : UTF-8
Codec ID                         : S_TEXT/UTF8
Codec ID/Info                    : UTF-8 Plain Text
Title                            : CHS
Language                         : Chinese
Text #2
ID                               : 5
Format                           : UTF-8
Codec ID                         : S_TEXT/UTF8
Codec ID/Info                    : UTF-8 Plain Text
Title                            : CHT
Language                         : Chinese



此处内容付费可见

向楼主支付【游币】或成为【特权组】才能显示 已有 6 人购买 

支付 8 游币 成为特权组
楼主精华帖
回复

使用道具 举报

签到天数: 471 天

[LV.9]以坛为家II

0

主题

811

帖子

1173

积分

Rank: 8Rank: 8

阅读权限
50
游币
97
精品值
0
热心值
0
分享值
0
在线时间
265 小时
注册时间
2014-12-19
最后登录
2020-10-1
发表于 2020-9-6 16:04:22 | 显示全部楼层
原来外卖崽还有个叫何什么银的名字~~~~~~~~~~
回复 支持 反对

使用道具 举报

签到天数: 27 天

[LV.4]偶尔看看III

21

主题

164

帖子

887

积分

Rank: 4

阅读权限
30
游币
538
精品值
0
热心值
0
分享值
36
在线时间
113 小时
注册时间
2020-7-22
最后登录
2020-9-29

最佳新人

 楼主| 发表于 2020-9-6 16:10:46 | 显示全部楼层
snowhu 发表于 2020-9-6 16:04
原来外卖崽还有个叫何什么银的名字~~~~~~~~~~

不就是何金银吗?
回复 支持 反对

使用道具 举报

签到天数: 724 天

[LV.9]以坛为家II

0

主题

959

帖子

3230

积分

Rank: 8Rank: 8

阅读权限
50
游币
2104
精品值
1
热心值
0
分享值
0
在线时间
165 小时
注册时间
2018-7-14
最后登录
2020-10-1
发表于 2020-9-6 17:33:03 | 显示全部楼层
楼主太厉害了!这个资源都能找到,辛苦了!我觉得慢慢游真是个好地方!
回复 支持 反对

使用道具 举报

签到天数: 26 天

[LV.4]偶尔看看III

0

主题

39

帖子

92

积分

Rank: 4

阅读权限
30
游币
44
精品值
0
热心值
0
分享值
0
在线时间
9 小时
注册时间
2020-1-30
最后登录
2020-9-18
发表于 2020-9-6 17:59:30 | 显示全部楼层
楼主太厉害了!这个资源都能找到,辛苦了!我觉得慢慢游真是个好地方!
回复 支持 反对

使用道具 举报

签到天数: 326 天

[LV.8]以坛为家I

1

主题

474

帖子

1259

积分

Rank: 8Rank: 8

阅读权限
50
游币
646
精品值
0
热心值
0
分享值
0
在线时间
139 小时
注册时间
2019-7-11
最后登录
2020-9-30
发表于 2020-9-7 08:13:52 | 显示全部楼层
楼主发贴辛苦了,谢谢楼主的精彩分享!我觉得慢慢游是注册对了!
回复 支持 反对

使用道具 举报

签到天数: 474 天

[LV.9]以坛为家II

0

主题

1万

帖子

1万

积分

Rank: 32Rank: 32Rank: 32Rank: 32Rank: 32Rank: 32Rank: 32Rank: 32

阅读权限
90
游币
7090
精品值
0
热心值
0
分享值
0
在线时间
790 小时
注册时间
2019-5-15
最后登录
2020-9-30
发表于 2020-9-8 12:13:32 | 显示全部楼层
感谢楼主的无私分享!要想慢慢游好 就靠你我他
回复 支持 反对

使用道具 举报

签到天数: 579 天

[LV.9]以坛为家II

0

主题

629

帖子

2727

积分

Rank: 8Rank: 8

阅读权限
50
游币
1909
精品值
0
热心值
0
分享值
0
在线时间
189 小时
注册时间
2018-12-3
最后登录
2020-10-1
发表于 2020-9-12 23:13:43 | 显示全部楼层
想问下 其它朋友下载这些天有速度么?
回复 支持 反对

使用道具 举报

签到天数: 10 天

[LV.3]偶尔看看II

0

主题

87

帖子

414

积分

Rank: 4

阅读权限
30
游币
264
精品值
30
热心值
0
分享值
0
在线时间
3 小时
注册时间
2020-9-21
最后登录
2020-10-1
发表于 6 天前 | 显示全部楼层
慢慢游有你们更精彩
回复 支持 反对

使用道具 举报

回帖须知
本站严禁灌水回复以及讽刺辱骂分享者的行为,轻者扣分警告,重者直接永久封禁。发帖前请详读:点击进入 。以免永久封禁。
 懒得打字?点击快捷回复➔➔ 
您需要登录后才可以回帖 登录 | 我要注册

本版积分规则

小黑屋|手机版|慢慢游社区 ( 站务处理service@mmyfilm.com )

GMT+8, 2020-10-1 16:25 , Processed in 0.175024 second(s), 36 queries .

Powered by Discuz! X3.4

© 2001-2013 Comsenz Inc.

快速回复 返回顶部 返回列表