慢慢游社区

 找回密码
 我要注册
搜索
查看: 849|回复: 56

[音频组作品] [百度盘][韩国][怪物][몬스터. 2014/惊悚/悬疑/剧情/BD.720P.x264.AC3/mkv/3.4G][国韩双语中字]

  [复制链接]

签到天数: 1506 天

[LV.Master]伴坛终老

108

主题

2381

帖子

2万

积分

一个一直走在路上寂寞并快乐着的影视工作者

Rank: 64Rank: 64Rank: 64Rank: 64Rank: 64Rank: 64Rank: 64Rank: 64Rank: 64Rank: 64Rank: 64Rank: 64Rank: 64Rank: 64Rank: 64Rank: 64

阅读权限
230
游币
3784
精品值
6677
热心值
0
分享值
220
在线时间
1350 小时
注册时间
2015-10-16
最后登录
2020-8-10

活跃会员热心会员突出贡献正太勋章色狼勋章猥琐勋章大叔勋章音频组专属勋章爱心勋章灌水之王子鼠处女座最佳新人纯洁勋章色女勋章萝莉勋章御姐勋章

QQ
发表于 2020-7-30 18:44:53 | 显示全部楼层 |阅读模式
本帖最后由 光影流转 于 2020-7-30 18:44 编辑


视频源:网络资源
台配国语音轨:纬来电影台早期录制版  
调教及封装:慢慢游—光影流转

                                                            怪物 몬스터 (2014)
慢慢游社区mmy.la_360截图20200730145114900.jpg

影片信息

导演: 黄仁镐
编剧: 黄仁镐
主演: 李民基 / 金高银 / 金宝罗
类型: 惊悚
制片国家/地区: 韩国
语言: 台配国语 / 韩语
上映日期: 2014-03-13(韩国)
片长: 120分钟
又名: 猎杀对战 / Monster
IMDb链接: tt3589450


剧情介绍
经营地摊的福顺(金高恩饰)和唯一的妹妹相依为命,虽然有点不足但福顺是出了名的“疯女子”,只要一得罪她便等于惹了大祸。某一天在福顺面前出现了一个冷血杀人魔泰秀(李民基饰),为了隐瞒自己的秘密泰秀还加害于她的妹妹,为了替妹妹报仇,毫不犹豫拿起刀的福顺,而泰秀省得麻烦,也打算干脆把福顺也杀死。

杀人魔独白:
曾经有人和我说过,不畏惧任何东西的人才是最可怕的,我杀了好多人,毫不犹豫的,谁答应我帮忙的请求,我会连那个人也杀掉。但在今天,我却碰到了个奇怪的女人,一个行尸走肉活着的疯女人,好像挺有意思的。

福顺的独白:
虽然我比不起其他人的生活和能力,但我是个很守约定的人,我曾经对奶奶发誓,我绝不会让任何人伤害妹妹一条头发,今天,我却遇上了一个没血没肉的冷血杀手,我一定会追杀到底。他,真的杀了我妹妹?


剧照截图点击放大

慢慢游社区mmy.la_GuaiWu.Monster.2014.BD.720P.x264.AC3.mkv.jpg

    Unique ID : 294642363828153116481680034636222793587 (0xDDAA0E1D88F3BD36268D92BCCB698773)
    Complete name : G:\Users\hp\GuaiWu.Monster.2014.BD.720P.x264.AC3.mkv
    Format : Matroska
    Format version : Version 4 / Version 2
    File size : 3.44 GiB
    Duration : 1h 53mn
    Overall bit rate : 4 330 Kbps
    Encoded date : UTC 2020-07-30 06:39:10
    Writing application : mkvmerge v43.0.0 ('The Quartermaster') 64-bit
    Writing library : libebml v1.3.10 + libmatroska v1.5.2
    DURATION : 01:53:46.876000000
    NUMBER_OF_FRAMES : 196006
    NUMBER_OF_BYTES : 109230010
    _STATISTICS_WRITING_APP : mkvmerge v43.0.0 ('The Quartermaster') 64-bit
    _STATISTICS_WRITING_DATE_UTC : 2020-07-30 06:39:10
    _STATISTICS_TAGS : BPS DURATION NUMBER_OF_FRAMES NUMBER_OF_BYTES
  Video #2
    ID : 2
    Format : AVC
    Format/Info : Advanced Video Codec
    Format settings, CABAC : No
    Format settings, ReFrames : 1 frame
    Codec ID : V_MPEG4/ISO/AVC
    Duration : 1h 53mn
    Bit rate : 3 995 Kbps
    Width : 1 280 pixels
    Height : 720 pixels
    Display aspect ratio : 16:9
    Frame rate mode : Constant
    Frame rate : 23.976 fps
    Color space : YUV
    Chroma subsampling : 4:2:0
    Bit depth : 8 bits
    Scan type : Progressive
    Bits/(Pixel*Frame) : 0.181
    Stream size : 3.12 GiB (91%)
    Writing library : x264 core 85 r1442 781d300
    Encoding settings : cabac=0 / ref=1 / deblock=0:0:0 (忽略)
    Language : Chinese
    Default : Yes
    Forced : No
  Audio #1
    ID : 1
    Format : AC-3
    Format/Info : Audio Coding 3
    Mode extension : CM (complete main)
    Format settings, Endianness : Big
    Codec ID : A_AC3
    Duration : 1h 53mn
    Bit rate mode : Constant
    Bit rate : 192 Kbps
    Channel(s) : 2 channels
    Channel positions : Front: L R
    Sampling rate : 48.0 KHz
    Bit depth : 16 bits
    Compression mode : Lossy
    Stream size : 156 MiB (4%)
    Title : 台配国语
    Language : Chinese
    Default : Yes
    Forced : No
  Audio #4
    ID : 4
    Format : AC-3
    Format/Info : Audio Coding 3
    Mode extension : CM (complete main)
    Format settings, Endianness : Big
    Codec ID : A_AC3
    Duration : 1h 53mn
    Bit rate mode : Constant
    Bit rate : 128 Kbps
    Channel(s) : 2 channels
    Channel positions : Front: L R
    Sampling rate : 44.1 KHz
    Bit depth : 16 bits
    Compression mode : Lossy
    Stream size : 104 MiB (3%)
    Language : Korean
    Default : No
    Forced : No
  Text #3
    ID : 3
    Format : UTF-8
    Codec ID : S_TEXT/UTF8
    Codec ID/Info : UTF-8 Plain Text
    Language : Chinese
    Default : Yes
    Forced : No

去后缀.pdf

资源获取:链接:>>点击进入百度云下载<<(←购买前请先验证分享链接是否有效)
游客,需要您回复成为VIP才能查看隐藏内容

点评

感谢楼主分享佳片!  发表于 7 天前

评分

参与人数 5游币 +52 精品值 +15 分享值 +4 收起 理由
xinzhuti + 2 很经典,很给力
zmn321 + 1 资源很给力,我们很高兴!
zfrzfr + 1
syx525 + 1 慢慢游有你更精彩!
qingchun + 50 + 15 + 1 慢慢游有你更精彩!

查看全部评分

楼主精华帖
爱生活、爱电影、更爱慢慢游!
回复

使用道具 举报

签到天数: 1696 天

[LV.Master]伴坛终老

19

主题

5016

帖子

1万

积分

Rank: 32Rank: 32Rank: 32Rank: 32Rank: 32Rank: 32Rank: 32Rank: 32

阅读权限
90
游币
9115
精品值
113
热心值
0
分享值
1
在线时间
1548 小时
注册时间
2015-4-30
最后登录
2020-8-9
发表于 2020-7-30 18:55:02 | 显示全部楼层
楼主发贴辛苦了,谢谢楼主的精彩分享!我觉得慢慢游是注册对了!
回复 支持 反对

使用道具 举报

签到天数: 81 天

[LV.6]常住居民II

0

主题

207

帖子

294

积分

Rank: 4

阅读权限
30
游币
21
精品值
0
热心值
0
分享值
0
在线时间
66 小时
注册时间
2018-11-15
最后登录
2020-8-10
发表于 2020-7-30 19:04:47 | 显示全部楼层
楼主发贴辛苦了,谢谢楼主的精彩分享!我觉得慢慢游是注册对了!
回复 支持 反对

使用道具 举报

签到天数: 671 天

[LV.9]以坛为家II

0

主题

814

帖子

1553

积分

Rank: 8Rank: 8

阅读权限
50
游币
329
精品值
0
热心值
0
分享值
0
在线时间
410 小时
注册时间
2018-3-30
最后登录
2020-8-10
发表于 2020-7-30 19:12:22 | 显示全部楼层
楼主发贴辛苦了,谢谢楼主的精彩分享!我觉得慢慢游是注册对了!
回复 支持 反对

使用道具 举报

签到天数: 358 天

[LV.8]以坛为家I

0

主题

1686

帖子

2134

积分

Rank: 8Rank: 8

阅读权限
50
游币
77
精品值
0
热心值
0
分享值
0
在线时间
371 小时
注册时间
2019-6-13
最后登录
2020-8-10
发表于 2020-7-30 19:16:08 | 显示全部楼层
其实我一直觉得楼主是资源大神!慢慢游有你们更精彩!
回复 支持 反对

使用道具 举报

签到天数: 756 天

[LV.10]以坛为家III

13

主题

842

帖子

1881

积分

Rank: 8Rank: 8

阅读权限
50
游币
681
精品值
53
热心值
0
分享值
0
在线时间
252 小时
注册时间
2016-7-30
最后登录
2020-8-10
发表于 2020-7-30 19:17:21 | 显示全部楼层
非常感谢楼主的制作分享
回复 支持 反对

使用道具 举报

签到天数: 1942 天

[LV.Master]伴坛终老

0

主题

5425

帖子

1万

积分

Rank: 32Rank: 32Rank: 32Rank: 32Rank: 32Rank: 32Rank: 32Rank: 32

阅读权限
90
游币
12426
精品值
0
热心值
0
分享值
0
在线时间
1587 小时
注册时间
2015-1-16
最后登录
2020-8-10
发表于 2020-7-30 19:38:01 | 显示全部楼层
楼主发贴辛苦了,谢谢楼主的精彩分享!我觉得慢慢游是注册对了!
回复 支持 反对

使用道具 举报

签到天数: 699 天

[LV.9]以坛为家II

56

主题

1267

帖子

2万

积分

Rank: 32Rank: 32Rank: 32Rank: 32Rank: 32Rank: 32Rank: 32Rank: 32

阅读权限
90
游币
22800
精品值
254
热心值
0
分享值
134
在线时间
386 小时
注册时间
2018-7-18
最后登录
2020-8-9

最佳新人

发表于 2020-7-30 19:39:33 | 显示全部楼层
楼主发贴辛苦了,谢谢楼主的精彩分享!我觉得慢慢游是注册对了!
回复 支持 反对

使用道具 举报

签到天数: 9 天

[LV.3]偶尔看看II

0

主题

15

帖子

77

积分

Rank: 2

阅读权限
10
游币
59
精品值
0
热心值
0
分享值
0
在线时间
3 小时
注册时间
2015-1-14
最后登录
2020-8-9
发表于 2020-7-30 19:53:04 | 显示全部楼层
支持发片,支持漫漫游
回复 支持 反对

使用道具 举报

签到天数: 1271 天

[LV.10]以坛为家III

50

主题

2179

帖子

2万

积分

Rank: 32Rank: 32Rank: 32Rank: 32Rank: 32Rank: 32Rank: 32Rank: 32

阅读权限
90
游币
22255
精品值
143
热心值
0
分享值
35
在线时间
625 小时
注册时间
2015-2-28
最后登录
2020-8-9

活跃会员辰龙

发表于 2020-7-30 20:03:02 | 显示全部楼层
谢谢楼主的精彩分享
回复 支持 反对

使用道具 举报

回帖须知
本站严禁灌水回复以及讽刺辱骂分享者的行为,轻者扣分警告,重者直接永久封禁。发帖前请详读:点击进入 。以免永久封禁。
 懒得打字?点击快捷回复➔➔ 
您需要登录后才可以回帖 登录 | 我要注册

本版积分规则

小黑屋|手机版|慢慢游社区 ( 站务处理service@mmyfilm.com )

GMT+8, 2020-8-10 16:01 , Processed in 0.175036 second(s), 33 queries .

Powered by Discuz! X3.4

© 2001-2013 Comsenz Inc.

快速回复 返回顶部 返回列表