慢慢游社区

 找回密码
 我要注册
搜索
查看: 1529|回复: 122

[国英多音轨] 【百度网盘】[绝密飞行].Stealth.2005.BluRay.1080P.x265.Hevc(10bit).mkv公映国语/英语3.86G

  [复制链接]

签到天数: 52 天

[LV.5]常住居民I

9

主题

141

帖子

3973

积分

Rank: 16Rank: 16Rank: 16Rank: 16

阅读权限
70
游币
3595
精品值
56
热心值
0
分享值
30
在线时间
65 小时
注册时间
2019-10-3
最后登录
2020-6-4
发表于 2020-5-6 13:52:46 | 显示全部楼层 |阅读模式
绝密飞行 Stealth (2005)

慢慢游社区mmy.la_p2199401007.webp.jpg


导演: 罗伯·科恩
编剧: W·D·里克特
主演: 乔什·卢卡斯 / 杰西卡·贝尔 / 杰米·福克斯 / 山姆·夏普德 / 理查德·劳斯伯格
类型: 动作 / 科幻 / 冒险
制片国家/地区: 美国
语言: 英语 / 俄语 / 西班牙语 / 韩语
上映日期: 2005-09-08(中国大陆) / 2005-07-29(美国)
片长: 121 分钟
又名: 机战未来 / 智能杀机
IMDb链接: tt0382992

绝密飞行的剧情简介 · · · · · ·  本(乔什•卢卡斯 Josh Lucas 饰)、凯拉(杰西卡•贝尔 Jessica Biel 饰)和亨利(杰米•福克斯 Jamie Foxx 饰)都是顶尖出色的飞行员。这天,他们接到了一项秘密任务:训练他们的新伙伴"铁蛋"。出人意料的是,"铁蛋"竟然是一架全智能的无人驾驶飞机,他们的任务就是把它训练成为锋利的尖刀。在完成一次飞行任务后,"铁蛋"意外被闪电击中,"铁蛋"因此拥有了情感了自主性。在随后的任务中,总部对当时情况进行考虑后打算放弃任务,岂料"铁蛋"突然飞离编队,将钻地炸弹投入了敌人的核武器库,造成一场前所未有的核灾难。
  队长本意识到这样一个智能杀人机器必须立即被摧毁,否则会给人类带来更多的灾难,他立即向总部作了汇报。聪明的"铁蛋"获悉他们的行动,于是一场人机追逐战展开了!


慢慢游社区mmy.la_⊥绝密飞行.Stealth.2005.000.mkv_20200506_132932.508.jpg 慢慢游社区mmy.la_⊥绝密飞行.Stealth.2005.000.mkv_20200506_133006.994.jpg 慢慢游社区mmy.la_⊥绝密飞行.Stealth.2005.000.mkv_20200506_133100.747.jpg 慢慢游社区mmy.la_⊥绝密飞行.Stealth.2005.000.mkv_20200506_133150.101.jpg 慢慢游社区mmy.la_⊥绝密飞行.Stealth.2005.000.mkv_20200506_133301.413.jpg 慢慢游社区mmy.la_⊥绝密飞行.Stealth.2005.000.mkv_20200506_133357.825.jpg 慢慢游社区mmy.la_⊥绝密飞行.Stealth.2005.000.mkv_20200506_133500.820.jpg 慢慢游社区mmy.la_⊥绝密飞行.Stealth.2005.000.mkv_20200506_133508.244.jpg 慢慢游社区mmy.la_⊥绝密飞行.Stealth.2005.000.mkv_20200506_133527.942.jpg 慢慢游社区mmy.la_⊥绝密飞行.Stealth.2005.000.mkv_20200506_133608.198.jpg 慢慢游社区mmy.la_⊥绝密飞行.Stealth.2005.000.mkv_20200506_133657.801.jpg 慢慢游社区mmy.la_⊥绝密飞行.Stealth.2005.000.mkv_20200506_133700.889.jpg 慢慢游社区mmy.la_⊥绝密飞行.Stealth.2005.000.mkv_20200506_133758.585.jpg 慢慢游社区mmy.la_⊥绝密飞行.Stealth.2005.000.mkv_20200506_133803.202.jpg 慢慢游社区mmy.la_⊥绝密飞行.Stealth.2005.000.mkv_20200506_133820.712.jpg 慢慢游社区mmy.la_⊥绝密飞行.Stealth.2005.000.mkv_20200506_133841.580.jpg 慢慢游社区mmy.la_⊥绝密飞行.Stealth.2005.000.mkv_20200506_133850.369.jpg 慢慢游社区mmy.la_⊥绝密飞行.Stealth.2005.000.mkv_20200506_133932.244.jpg 慢慢游社区mmy.la_⊥绝密飞行.Stealth.2005.000.mkv_20200506_133942.484.jpg 慢慢游社区mmy.la_⊥绝密飞行.Stealth.2005.000.mkv_20200506_134016.117.jpg
General
Unique ID                      : 190486387537357424667416818903151222158 (0x8F4E5801AE14BB3C9C03FF82498B1D8E)
Complete name                  : ⊥绝密飞行.Stealth.2005.000.mkv
Format                         : Matroska
Format version                 : Version 4
File size                      : 3.87 GiB
Duration                       : 2 h 0 min
Overall bit rate               : 4 583 kb/s
Movie name                     : The.Dark.Tower.2017.1080p.BluRay.REMUX.AVC.DTS-HD.MA.5.1-FGT
Encoded date                   : UTC 2017-09-01 12:17:36
Writing application            : mkvmerge v8.1.0 ('Psychedelic Postcard') 64bit
Writing library                : libebml v1.3.1 + libmatroska v1.4.2


Video
ID                             : 1
Format                         : HEVC
Format/Info                    : High Efficiency Video Coding
Format profile                 : Main 10@L4@Main
Codec ID                       : V_MPEGH/ISO/HEVC
Duration                       : 2 h 0 min
Bit rate                       : 4 098 kb/s
Width                          : 1 912 pixels
Height                         : 800 pixels
Display aspect ratio           : 2.40:1
Frame rate mode                : Constant
Frame rate                     : 23.976 (24000/1001) FPS
Color space                    : YUV
Chroma subsampling             : 4:2:0
Bit depth                      : 10 bits
Bits/(Pixel*Frame)             : 0.112
Stream size                    : 3.46 GiB (89%)
Writing library                : x265 2.2+2-998d4520d1cf:[Windows][GCC 6.2.0][64 bit] 10bit
Encoding settings              : cpuid=1173503 / frame-threads=6 / numa-pools=4 / wpp / no-pmode / no-pme / no-psnr / no-ssim / log-level=2 / input-csp=1 / input-res=1912x800 / interlace=0 / total-frames=173689 / level-idc=0 / high-tier=1 / uhd-bd=0 / ref=3 / no-allow-non-conformance / no-repeat-headers / annexb / no-aud / no-hrd / info / hash=0 / no-temporal-layers / open-gop / min-keyint=23 / keyint=250 / bframes=4 / b-adapt=2 / b-pyramid / bframe-bias=0 / rc-lookahead=20 / lookahead-slices=5 / scenecut=40 / no-intra-refresh / ctu=64 / min-cu-size=8 / no-rect / no-amp / max-tu-size=32 / tu-inter-depth=1 / tu-intra-depth=1 / limit-tu=0 / rdoq-level=0 / signhide / no-tskip / nr-intra=0 / nr-inter=0 / no-constrained-intra / strong-intra-smoothing / max-merge=2 / limit-refs=3 / no-limit-modes / me=1 / subme=2 / merange=57 / temporal-mvp / weightp / no-weightb / no-analyze-src-pics / deblock=0:0 / sao / no-sao-non-deblock / rd=3 / no-early-skip / rskip / no-fast-intra / no-tskip-fast / no-cu-lossless / no-b-intra / rdpenalty=0 / psy-rd=0.00 / psy-rdoq=0.00 / no-rd-refine / analysis-mode=0 / no-lossless / cbqpoffs=0 / crqpoffs=0 / rc=abr / bitrate=4098 / qcomp=0.60 / qpstep=4 / stats-write=0 / stats-read=2 / cplxblur=20.0 / qblur=0.5 / ipratio=1.40 / pbratio=1.30 / aq-mode=1 / aq-strength=0.00 / cutree / zone-count=0 / no-strict-cbr / qg-size=32 / no-rc-grain / qpmax=69 / qpmin=0 / sar=1 / overscan=0 / videoformat=5 / range=0 / colorprim=2 / transfer=2 / colormatrix=2 / chromaloc=0 / display-window=0 / max-cll=0,0 / min-luma=0 / max-luma=1023 / log2-max-poc-lsb=8 / vui-timing-info / vui-hrd-info / slices=1 / opt-qp-pps / opt-ref-list-length-pps / no-multi-pass-opt-rps / scenecut-bias=0.05
Default                        : Yes
Forced                         : No


Audio #1
ID                             : 2
Format                         : AAC LC SBR
Format/Info                    : Advanced Audio Codec Low Complexity with Spectral Band Replication
Commercial name                : HE-AAC
Format settings                : Explicit
Codec ID                       : A_AAC-2
Duration                       : 2 h 0 min
Bit rate                       : 161 kb/s
Channel(s)                     : 6 channels
Channel layout                 : C L R Ls Rs LFE
Sampling rate                  : 96.0 kHz
Frame rate                     : 46.875 FPS (2048 SPF)
Compression mode               : Lossy
Stream size                    : 139 MiB (4%)
Language                       : English
Default                        : Yes
Forced                         : No


Audio #2
ID                             : 3
Format                         : AAC LC SBR
Format/Info                    : Advanced Audio Codec Low Complexity with Spectral Band Replication
Commercial name                : HE-AAC
Format settings                : Explicit
Codec ID                       : A_AAC-2
Duration                       : 2 h 0 min
Bit rate                       : 258 kb/s
Channel(s)                     : 6 channels
Channel layout                 : C L R Ls Rs LFE
Sampling rate                  : 96.0 kHz
Frame rate                     : 46.875 FPS (2048 SPF)
Compression mode               : Lossy
Stream size                    : 222 MiB (6%)
Language                       : Chinese
Default                        : No
Forced                         : No


Text #1
ID                             : 4
Format                         : PGS
Muxing mode                    : zlib
Codec ID                       : S_HDMV/PGS
Codec ID/Info                  : Picture based subtitle format used on BDs/HD-DVDs
Duration                       : 1 h 52 min
Bit rate                       : 11.3 kb/s
Count of elements              : 1573
Stream size                    : 9.02 MiB (0%)
Language                       : Chinese
Default                        : Yes
Forced                         : No


Text #2
ID                             : 5
Format                         : PGS
Muxing mode                    : zlib
Codec ID                       : S_HDMV/PGS
Codec ID/Info                  : Picture based subtitle format used on BDs/HD-DVDs
Duration                       : 1 h 52 min
Bit rate                       : 12.2 kb/s
Count of elements              : 1573
Stream size                    : 9.78 MiB (0%)
Language                       : Chinese
Default                        : No
Forced                         : No


Text #3
ID                             : 6
Format                         : PGS
Muxing mode                    : zlib
Codec ID                       : S_HDMV/PGS
Codec ID/Info                  : Picture based subtitle format used on BDs/HD-DVDs
Duration                       : 1 h 52 min
Bit rate                       : 21.6 kb/s
Count of elements              : 1574
Stream size                    : 17.4 MiB (0%)
Language                       : Chinese
Default                        : No
Forced                         : No


Text #4
ID                             : 7
Format                         : PGS
Muxing mode                    : zlib
Codec ID                       : S_HDMV/PGS
Codec ID/Info                  : Picture based subtitle format used on BDs/HD-DVDs
Duration                       : 1 h 52 min
Bit rate                       : 22.7 kb/s
Count of elements              : 1574
Stream size                    : 18.2 MiB (0%)
Language                       : Chinese
Default                        : No
Forced                         : No


H265、10bit。很早以前了音轨来自CMCT。我发布的视频全部为HEVC/H265格式。

>>点击进入百度云下载<<(←购买前请先验证分享链接是否有效)
此处内容付费可见

向楼主支付【游币】或成为【特权组】才能显示 已有 103 人购买 

支付 10 游币 成为特权组
楼主精华帖
回复

使用道具 举报

签到天数: 2 天

[LV.1]初来乍到

0

主题

149

帖子

1522

积分

Rank: 8Rank: 8

阅读权限
50
游币
1256
精品值
0
热心值
0
分享值
0
在线时间
117 小时
注册时间
2019-12-26
最后登录
2020-6-4
发表于 2020-5-6 13:56:14 | 显示全部楼层
好片子,谢谢楼主
回复 支持 反对

使用道具 举报

签到天数: 950 天

[LV.10]以坛为家III

236

主题

4998

帖子

6万

积分

Rank: 64Rank: 64Rank: 64Rank: 64Rank: 64Rank: 64Rank: 64Rank: 64Rank: 64Rank: 64Rank: 64Rank: 64Rank: 64Rank: 64Rank: 64Rank: 64

阅读权限
110
游币
59045
精品值
2130
热心值
2
分享值
67
在线时间
1384 小时
注册时间
2014-9-22
最后登录
2020-6-2

活跃会员灌水之王最佳新人

发表于 2020-5-6 14:17:23 | 显示全部楼层
看看是个,听过没看过。
回复 支持 反对

使用道具 举报

签到天数: 336 天

[LV.8]以坛为家I

3

主题

880

帖子

1056

积分

Rank: 8Rank: 8

阅读权限
50
游币
61
精品值
0
热心值
0
分享值
0
在线时间
115 小时
注册时间
2014-10-11
最后登录
2020-6-2
发表于 2020-5-6 14:25:50 | 显示全部楼层
楼主太厉害了!这个资源都能找到,辛苦了!我觉得慢慢游真是个好地方!
回复 支持 反对

使用道具 举报

签到天数: 65 天

[LV.6]常住居民II

0

主题

109

帖子

4621

积分

Rank: 32Rank: 32Rank: 32Rank: 32Rank: 32Rank: 32Rank: 32Rank: 32

阅读权限
150
游币
4387
精品值
52
热心值
0
分享值
0
在线时间
21 小时
注册时间
2020-2-14
最后登录
2020-6-4
发表于 2020-5-6 14:27:29 | 显示全部楼层
以前看过,感觉还可以
回复 支持 反对

使用道具 举报

该用户从未签到

0

主题

302

帖子

528

积分

Rank: 4

阅读权限
30
游币
342
精品值
0
热心值
0
分享值
0
在线时间
45 小时
注册时间
2020-4-11
最后登录
2020-6-3
发表于 2020-5-6 15:09:32 | 显示全部楼层
购买前请先验证分享链接是否有效
回复 支持 反对

使用道具 举报

签到天数: 72 天

[LV.6]常住居民II

0

主题

378

帖子

2050

积分

Rank: 8Rank: 8

阅读权限
50
游币
1604
精品值
0
热心值
0
分享值
0
在线时间
68 小时
注册时间
2020-3-21
最后登录
2020-6-4
发表于 2020-5-6 15:20:53 | 显示全部楼层
楼主发贴辛苦了,谢谢楼主的精彩分享!我觉得慢慢游是注册对了!
回复 支持 反对

使用道具 举报

该用户从未签到

0

主题

231

帖子

1799

积分

Rank: 8Rank: 8

阅读权限
50
游币
1436
精品值
0
热心值
0
分享值
0
在线时间
132 小时
注册时间
2019-6-14
最后登录
2020-6-4
发表于 2020-5-6 15:22:57 | 显示全部楼层
谢谢分享。。。
回复

使用道具 举报

签到天数: 3 天

[LV.2]偶尔看看I

7

主题

76

帖子

311

积分

Rank: 4

阅读权限
30
游币
9
精品值
45
热心值
0
分享值
0
在线时间
136 小时
注册时间
2019-9-10
最后登录
2020-6-3
发表于 2020-5-6 15:38:11 | 显示全部楼层
楼主太厉害了!这个资源都能找到,辛苦了!我觉得慢慢游真是个好地方!
回复 支持 反对

使用道具 举报

签到天数: 1536 天

[LV.Master]伴坛终老

0

主题

2196

帖子

8210

积分

Rank: 16Rank: 16Rank: 16Rank: 16

阅读权限
70
游币
4201
精品值
515
热心值
0
分享值
0
在线时间
783 小时
注册时间
2015-3-2
最后登录
2020-6-4
发表于 2020-5-6 16:02:49 | 显示全部楼层
楼主太厉害了!这个资源都能找到,辛苦了!我觉得慢慢游真是个好地方!
回复 支持 反对

使用道具 举报

回帖须知
本站严禁灌水回复以及讽刺辱骂分享者的行为,轻者扣分警告,重者直接永久封禁。发帖前请详读:点击进入 。以免永久封禁。
 懒得打字?点击快捷回复➔➔ 
您需要登录后才可以回帖 登录 | 我要注册

本版积分规则

小黑屋|手机版|慢慢游社区 ( 站务处理service@mmyfilm.com )

GMT+8, 2020-6-4 12:31 , Processed in 0.238211 second(s), 35 queries .

Powered by Discuz! X3.4

© 2001-2013 Comsenz Inc.

快速回复 返回顶部 返回列表