慢慢游社区

 找回密码
 我要注册
搜索
查看: 1088|回复: 78

[国英多音轨] 【百度网盘】[特工狂花]The.Long.Kiss.Goodnight.1996.BluRay.1080P.x265.Hevc(10bit).mkv公映国语/英语2.36G

  [复制链接]

签到天数: 47 天

[LV.5]常住居民I

9

主题

136

帖子

3887

积分

Rank: 8Rank: 8

阅读权限
50
游币
3519
精品值
54
热心值
0
分享值
30
在线时间
64 小时
注册时间
2019-10-3
最后登录
2020-5-27
发表于 2020-5-6 13:25:06 | 显示全部楼层 |阅读模式
特工狂花 The Long Kiss Goodnight (1996)
慢慢游社区mmy.la_p2209392977.webp.jpg
导演: 雷尼·哈林
编剧: 沙恩·布莱克
主演: 吉娜·戴维斯 / 塞缪尔·杰克逊 / 伊芳·齐玛 / 克雷格·比尔克 / 汤姆·阿曼德茨 / [url=]更多...[/url]
类型: 剧情 / 动作 / 犯罪
制片国家/地区: 美国
语言: 英语
上映日期: 1997-02-06
片长: 120 分钟
又名: 失忆女特工 / 夺命总动员 / 追命总动员
IMDb链接: tt0116908
特工狂花的剧情简介 · · · · · ·  女教师萨曼莎(吉娜·戴维斯 Geena Davis 饰)和8岁的女儿一起在宁静的小镇里过着安逸的生活,一切都令她感到十分满意,除了她曾经失去过部分记忆这一点。在一次车祸中,她失去的记忆开始复苏,而脑中出现的一些零碎片段让她对自己曾经的身份产生了怀疑。
  通过私家侦探米奇(塞缪尔·杰克逊 Samuel L. Jackson 饰)的帮助,萨曼莎得知自己竟是一名联邦调查局的特工,而在调查局里,一个无意中得知了老板秘密的特工是不受欢迎的。萨曼莎仍然健在的消息不胫而走,她能够感觉到,一些非常残暴的恐怖分子正在渐渐接近她和她的女儿,他们的目的只有一个,那就是将她除之而后快。


慢慢游社区mmy.la_⊥[特工狂花]The.Long.Kiss.Goodnight.1996.BluRay.1080P.x265.Hevc(10bit)Wsyhgbs.mk.jpg 慢慢游社区mmy.la_⊥[特工狂花]The.Long.Kiss.Goodnight.1996.BluRay.1080P.x265.Hevc(10bit)Wsyhgbs.mk.jpg 慢慢游社区mmy.la_⊥[特工狂花]The.Long.Kiss.Goodnight.1996.BluRay.1080P.x265.Hevc(10bit)Wsyhgbs.mk.jpg 慢慢游社区mmy.la_⊥[特工狂花]The.Long.Kiss.Goodnight.1996.BluRay.1080P.x265.Hevc(10bit)Wsyhgbs.mk.jpg 慢慢游社区mmy.la_⊥[特工狂花]The.Long.Kiss.Goodnight.1996.BluRay.1080P.x265.Hevc(10bit)Wsyhgbs.mk.jpg 慢慢游社区mmy.la_⊥[特工狂花]The.Long.Kiss.Goodnight.1996.BluRay.1080P.x265.Hevc(10bit)Wsyhgbs.mk.jpg 慢慢游社区mmy.la_⊥[特工狂花]The.Long.Kiss.Goodnight.1996.BluRay.1080P.x265.Hevc(10bit)Wsyhgbs.mk.jpg 慢慢游社区mmy.la_⊥[特工狂花]The.Long.Kiss.Goodnight.1996.BluRay.1080P.x265.Hevc(10bit)Wsyhgbs.mk.jpg 慢慢游社区mmy.la_⊥[特工狂花]The.Long.Kiss.Goodnight.1996.BluRay.1080P.x265.Hevc(10bit)Wsyhgbs.mk.jpg 慢慢游社区mmy.la_⊥[特工狂花]The.Long.Kiss.Goodnight.1996.BluRay.1080P.x265.Hevc(10bit)Wsyhgbs.mk.jpg 慢慢游社区mmy.la_⊥[特工狂花]The.Long.Kiss.Goodnight.1996.BluRay.1080P.x265.Hevc(10bit)Wsyhgbs.mk.jpg 慢慢游社区mmy.la_⊥[特工狂花]The.Long.Kiss.Goodnight.1996.BluRay.1080P.x265.Hevc(10bit)Wsyhgbs.mk.jpg 慢慢游社区mmy.la_⊥[特工狂花]The.Long.Kiss.Goodnight.1996.BluRay.1080P.x265.Hevc(10bit)Wsyhgbs.mk.jpg 慢慢游社区mmy.la_⊥[特工狂花]The.Long.Kiss.Goodnight.1996.BluRay.1080P.x265.Hevc(10bit)Wsyhgbs.mk.jpg
General
Unique ID                      : 206144619236450537757510891872812944580 (0x9B16026EFF35CED8AAB3BE852FFA4CC4)
Complete name              [特工狂花]The.Long.Kiss.Goodnight.1996.BluRay.1080P.x265.Hevc(10bit).mkv
Format                         : Matroska
Format version                 : Version 4
File size                      : 2.37 GiB
Duration                       : 2 h 0 min
Overall bit rate               : 2 809 kb/s
Encoded date                   : UTC 2016-07-23 09:07:42
Writing application            : mkvmerge v8.1.0 ('Psychedelic Postcard') 64bit
Writing library                : libebml v1.3.1 + libmatroska v1.4.2


Video
ID                             : 1
Format                         : HEVC
Format/Info                    : High Efficiency Video Coding
Format profile                 : Main 10@L4@Main
Codec ID                       : V_MPEGH/ISO/HEVC
Duration                       : 2 h 0 min
Bit rate                       : 2 299 kb/s
Width                          : 1 912 pixels
Height                         : 800 pixels
Display aspect ratio           : 2.40:1
Frame rate mode                : Constant
Frame rate                     : 23.976 (24000/1001) FPS
Color space                    : YUV
Chroma subsampling             : 4:2:0
Bit depth                      : 10 bits
Bits/(Pixel*Frame)             : 0.063
Stream size                    : 1.94 GiB (82%)
Writing library                : x265 1.9+32-c2228fb8151d:[Windows][GCC 4.8.2][64 bit] 10bit
Encoding settings              : wpp / ctu=64 / min-cu-size=8 / max-tu-size=32 / tu-intra-depth=1 / tu-inter-depth=1 / me=1 / subme=2 / merange=57 / no-rect / no-amp / max-merge=2 / temporal-mvp / no-early-skip / rdpenalty=0 / no-tskip / no-tskip-fast / strong-intra-smoothing / no-lossless / no-cu-lossless / no-constrained-intra / no-fast-intra / open-gop / no-temporal-layers / interlace=0 / keyint=250 / min-keyint=23 / scenecut=40 / rc-lookahead=20 / lookahead-slices=5 / bframes=4 / bframe-bias=0 / b-adapt=2 / ref=3 / limit-refs=3 / no-limit-modes / weightp / no-weightb / aq-mode=1 / qg-size=32 / aq-strength=0.00 / cbqpoffs=0 / crqpoffs=0 / rd=3 / psy-rd=0.00 / rdoq-level=0 / psy-rdoq=0.00 / no-rd-refine / signhide / deblock / sao / no-sao-non-deblock / b-pyramid / cutree / no-intra-refresh / rc=2 / pass / bitrate=2298 / qcomp=0.60 / qpmin=0 / qpmax=51 / qpstep=4 / cplxblur=20.0 / qblur=0.5 / ipratio=1.40 / pbratio=1.30
Default                        : Yes
Forced                         : No


Audio #1
ID                             : 2
Format                         : AAC LC SBR
Format/Info                    : Advanced Audio Codec Low Complexity with Spectral Band Replication
Commercial name                : HE-AAC
Format settings                : Explicit
Codec ID                       : A_AAC-2
Duration                       : 2 h 0 min
Bit rate                       : 170 kb/s
Channel(s)                     : 2 channels
Channel layout                 : L R
Sampling rate                  : 48.0 kHz
Frame rate                     : 23.438 FPS (2048 SPF)
Compression mode               : Lossy
Stream size                    : 147 MiB (6%)
Title                          : 英语
Language                       : English
Default                        : Yes
Forced                         : No


Audio #2
ID                             : 3
Format                         : AAC LC SBR
Format/Info                    : Advanced Audio Codec Low Complexity with Spectral Band Replication
Commercial name                : HE-AAC
Format settings                : Explicit
Codec ID                       : A_AAC-2
Duration                       : 2 h 0 min
Bit rate                       : 192 kb/s
Channel(s)                     : 2 channels
Channel layout                 : L R
Sampling rate                  : 48.0 kHz
Frame rate                     : 23.438 FPS (2048 SPF)
Compression mode               : Lossy
Stream size                    : 164 MiB (7%)
Title                          : 上译国配
Language                       : Chinese
Default                        : No
Forced                         : No


Audio #3
ID                             : 4
Format                         : AAC LC SBR
Format/Info                    : Advanced Audio Codec Low Complexity with Spectral Band Replication
Commercial name                : HE-AAC
Format settings                : Explicit
Codec ID                       : A_AAC-2
Duration                       : 2 h 0 min
Bit rate                       : 147 kb/s
Channel(s)                     : 2 channels
Channel layout                 : L R
Sampling rate                  : 48.0 kHz
Frame rate                     : 23.438 FPS (2048 SPF)
Compression mode               : Lossy
Stream size                    : 127 MiB (5%)
Title                          : 内参国配
Language                       : Chinese
Default                        : No
Forced                         : No


Text #1
ID                             : 5
Format                         : ASS
Codec ID                       : S_TEXT/ASS
Codec ID/Info                  : Advanced Sub Station Alpha
Duration                       : 1 h 53 min
Bit rate                       : 201 b/s
Count of elements              : 1304
Compression mode               : Lossless
Stream size                    : 168 KiB (0%)
Title                          : 中英特效
Language                       : Chinese
Default                        : Yes
Forced                         : No


Text #2
ID                             : 6
Format                         : UTF-8
Codec ID                       : S_TEXT/UTF8
Codec ID/Info                  : UTF-8 Plain Text
Duration                       : 1 h 50 min
Bit rate                       : 38 b/s
Count of elements              : 1301
Stream size                    : 31.3 KiB (0%)
Title                          : 简体中文
Language                       : Chinese
Default                        : No
Forced                         : No


Text #3
ID                             : 7
Format                         : UTF-8
Codec ID                       : S_TEXT/UTF8
Codec ID/Info                  : UTF-8 Plain Text
Duration                       : 1 h 50 min
Bit rate                       : 38 b/s
Count of elements              : 1301
Stream size                    : 31.3 KiB (0%)
Title                          : 繁体
Language                       : Chinese
Default                        : No
Forced                         : No


Text #4
ID                             : 8
Format                         : UTF-8
Codec ID                       : S_TEXT/UTF8
Codec ID/Info                  : UTF-8 Plain Text
Duration                       : 1 h 50 min
Bit rate                       : 46 b/s
Count of elements              : 1301
Stream size                    : 37.3 KiB (0%)
Title                          : 英文字幕
Language                       : English
Default                        : No
Forced                         : No


Text #5
ID                             : 9
Format                         : UTF-8
Codec ID                       : S_TEXT/UTF8
Codec ID/Info                  : UTF-8 Plain Text
Duration                       : 1 h 50 min
Bit rate                       : 87 b/s
Count of elements              : 1301
Stream size                    : 71.1 KiB (0%)
Title                          : 中英对照
Language                       : Chinese
Default                        : No
Forced                         : No


H265、10bit。很早以前了音轨来自CMCT。我发布的视频全部为HEVC/H265格式。
链接:>>点击进入百度云下载<<(←购买前请先验证分享链接是否有效)
提取码:
此处内容付费可见

向楼主支付【游币】或成为【特权组】才能显示 已有 66 人购买 

支付 10 游币 成为特权组
楼主精华帖
回复

使用道具 举报

签到天数: 93 天

[LV.6]常住居民II

0

主题

185

帖子

360

积分

Rank: 4

阅读权限
30
游币
146
精品值
5
热心值
0
分享值
0
在线时间
19 小时
注册时间
2018-12-26
最后登录
2020-5-27
发表于 2020-5-6 13:29:53 | 显示全部楼层
楼主发贴辛苦了,谢谢楼主的精彩分享!
回复 支持 反对

使用道具 举报

签到天数: 945 天

[LV.10]以坛为家III

236

主题

4951

帖子

7万

积分

Rank: 64Rank: 64Rank: 64Rank: 64Rank: 64Rank: 64Rank: 64Rank: 64Rank: 64Rank: 64Rank: 64Rank: 64Rank: 64Rank: 64Rank: 64Rank: 64

阅读权限
110
游币
59622
精品值
2121
热心值
2
分享值
67
在线时间
1377 小时
注册时间
2014-9-22
最后登录
2020-5-28

活跃会员灌水之王最佳新人

发表于 2020-5-6 13:48:34 | 显示全部楼层
看看吧,谢谢楼主分享资源。
回复 支持 反对

使用道具 举报

签到天数: 690 天

[LV.9]以坛为家II

0

主题

1110

帖子

1594

积分

Rank: 8Rank: 8

阅读权限
50
游币
104
精品值
0
热心值
0
分享值
0
在线时间
380 小时
注册时间
2017-10-10
最后登录
2020-5-27
发表于 2020-5-6 15:10:18 | 显示全部楼层
下载看看。。。。。。。。。。。。。。。。。。。。。。
回复

使用道具 举报

签到天数: 331 天

[LV.8]以坛为家I

3

主题

862

帖子

1041

积分

Rank: 8Rank: 8

阅读权限
50
游币
65
精品值
0
热心值
0
分享值
0
在线时间
114 小时
注册时间
2014-10-11
最后登录
2020-5-27
发表于 2020-5-6 15:17:37 | 显示全部楼层
既然你诚信诚意的推荐了,那我就满怀欣喜的看看!
回复 支持 反对

使用道具 举报

该用户从未签到

0

主题

231

帖子

1795

积分

Rank: 8Rank: 8

阅读权限
50
游币
1433
精品值
0
热心值
0
分享值
0
在线时间
131 小时
注册时间
2019-6-14
最后登录
2020-5-27
发表于 2020-5-6 15:24:06 | 显示全部楼层
谢谢分享。。。
回复

使用道具 举报

签到天数: 402 天

[LV.9]以坛为家II

0

主题

3123

帖子

4388

积分

Rank: 16Rank: 16Rank: 16Rank: 16

阅读权限
70
游币
943
精品值
0
热心值
0
分享值
0
在线时间
322 小时
注册时间
2019-4-6
最后登录
2020-5-27
发表于 2020-5-6 15:33:16 | 显示全部楼层
楼主发贴辛苦了,谢谢楼主的精彩分享!我觉得慢慢游是注册对了!
回复 支持 反对

使用道具 举报

该用户从未签到

0

主题

21

帖子

478

积分

Rank: 4

阅读权限
30
游币
452
精品值
0
热心值
0
分享值
0
在线时间
5 小时
注册时间
2020-3-30
最后登录
2020-5-25
发表于 2020-5-6 16:08:20 | 显示全部楼层
支持支持  老片好看
回复 支持 反对

使用道具 举报

签到天数: 87 天

[LV.6]常住居民II

2

主题

110

帖子

167

积分

Rank: 4

阅读权限
30
游币
52
精品值
0
热心值
0
分享值
0
在线时间
5 小时
注册时间
2020-3-1
最后登录
2020-5-27
发表于 2020-5-6 16:28:54 | 显示全部楼层
楼主太厉害了!这个资源都能找到,辛苦了!我觉得慢慢游真是个好地方!
回复 支持 反对

使用道具 举报

签到天数: 27 天

[LV.4]偶尔看看III

0

主题

70

帖子

677

积分

Rank: 4

阅读权限
30
游币
583
精品值
0
热心值
0
分享值
0
在线时间
24 小时
注册时间
2020-1-25
最后登录
2020-5-20
发表于 2020-5-6 18:32:50 | 显示全部楼层
赶紧下载啦,辛苦楼主啦,多多分享
回复 支持 反对

使用道具 举报

回帖须知
本站严禁灌水回复以及讽刺辱骂分享者的行为,轻者扣分警告,重者直接永久封禁。发帖前请详读:点击进入 。以免永久封禁。
 懒得打字?点击快捷回复➔➔ 
您需要登录后才可以回帖 登录 | 我要注册

本版积分规则

小黑屋|手机版|慢慢游社区 ( 站务处理service@mmyfilm.com )

GMT+8, 2020-5-28 06:27 , Processed in 0.192169 second(s), 38 queries .

Powered by Discuz! X3.4

© 2001-2013 Comsenz Inc.

快速回复 返回顶部 返回列表