慢慢游社区

 找回密码
 我要注册
搜索
查看: 840|回复: 57

[国英多音轨] 【百度网盘】[不败枭雄].The.Last.Man.Standing.1996.BluRay.1080P.x265.Hevc(10bit).mkv公映国语/英语2.24G

  [复制链接]

签到天数: 47 天

[LV.5]常住居民I

9

主题

136

帖子

3887

积分

Rank: 8Rank: 8

阅读权限
50
游币
3519
精品值
54
热心值
0
分享值
30
在线时间
64 小时
注册时间
2019-10-3
最后登录
2020-5-27
发表于 2020-5-6 12:40:10 | 显示全部楼层 |阅读模式
Man S[free]tanding (1996) 慢慢游社区mmy.la_p2512099957.webp.jpg


导演: 沃尔特·希尔
编剧: 沃尔特·希尔 / 菊岛隆三 / 黑泽明
主演: 布鲁斯·威利斯 / 布鲁斯·邓恩 / 威廉·桑德森 / 克里斯托弗·沃肯 / 大卫·帕特里克·凯利 / [url=]更多...[/url]
类型: 剧情 / 动作 / 惊悚 / 犯罪
制片国家/地区: 美国
语言: 英语 / 西班牙语
上映日期: 1996-09-20(美国)
片长: 101分钟
又名: 不败枭雄 / 最后一个站着的人
IMDb链接: tt0116830

终极悍将的剧情简介 · · · · · ·  故事发生在禁酒令执行期间,私酒买卖成为了黑帮分子们赚钱谋利的最佳手段。达利(大卫·帕特里克·凯利 David Patrick Kelly 饰)和史托兹(尼德·艾森伯格 Ned Eisenberg 饰)分别是爱尔兰黑手党和意大利黑手党的首脑,两个帮派因为争夺地盘的问题而闹得剑拔弩张。
  某日,镇上来了一位神秘的流浪抢手,自称史密斯(布鲁斯·威利斯 Bruce Willis 饰),经验丰富的他很快就看出了盘旋在小镇上空一触即发的紧张气氛,喜欢铤而走险的史密斯决定在此大捞一笔。史密斯游走于达利和史托兹之间,很快就赚得盆满钵满,然而,没过多久,他就发现,自己陷入了危机之中,成为了两大黑手党都想要除掉的对象。


慢慢游社区mmy.la_⊥[不败枭雄].The.Last.Man.Standing.1996.1080p.BluRay.x265.hevc-Wsyhgbs.mkv_20200.jpg 慢慢游社区mmy.la_⊥[不败枭雄].The.Last.Man.Standing.1996.1080p.BluRay.x265.hevc-Wsyhgbs.mkv_20200.jpg 慢慢游社区mmy.la_⊥[不败枭雄].The.Last.Man.Standing.1996.1080p.BluRay.x265.hevc-Wsyhgbs.mkv_20200.jpg 慢慢游社区mmy.la_⊥[不败枭雄].The.Last.Man.Standing.1996.1080p.BluRay.x265.hevc-Wsyhgbs.mkv_20200.jpg 慢慢游社区mmy.la_⊥[不败枭雄].The.Last.Man.Standing.1996.1080p.BluRay.x265.hevc-Wsyhgbs.mkv_20200.jpg 慢慢游社区mmy.la_⊥[不败枭雄].The.Last.Man.Standing.1996.1080p.BluRay.x265.hevc-Wsyhgbs.mkv_20200.jpg 慢慢游社区mmy.la_⊥[不败枭雄].The.Last.Man.Standing.1996.1080p.BluRay.x265.hevc-Wsyhgbs.mkv_20200.jpg 慢慢游社区mmy.la_⊥[不败枭雄].The.Last.Man.Standing.1996.1080p.BluRay.x265.hevc-Wsyhgbs.mkv_20200.jpg 慢慢游社区mmy.la_⊥[不败枭雄].The.Last.Man.Standing.1996.1080p.BluRay.x265.hevc-Wsyhgbs.mkv_20200.jpg 慢慢游社区mmy.la_⊥[不败枭雄].The.Last.Man.Standing.1996.1080p.BluRay.x265.hevc-Wsyhgbs.mkv_20200.jpg 慢慢游社区mmy.la_⊥[不败枭雄].The.Last.Man.Standing.1996.1080p.BluRay.x265.hevc-Wsyhgbs.mkv_20200.jpg 慢慢游社区mmy.la_⊥[不败枭雄].The.Last.Man.Standing.1996.1080p.BluRay.x265.hevc-Wsyhgbs.mkv_20200.jpg
General
Unique ID                      : 239767053889644641241541523961668755672 (0xB4617472C6E70D16BA735A6F7C64E0D8)
Complete name                  : [不败枭雄].The.Last.Man.Standing.1996.1080p.BluRay.x265.mkv
Format                         : Matroska
Format version                 : Version 4
File size                      : 2.25 GiB
Duration                       : 1 h 41 min
Overall bit rate               : 3 182 kb/s
Encoded date                   : UTC 2016-05-17 05:39:46
Writing application            : mkvmerge v8.1.0 ('Psychedelic Postcard') 64bit
Writing library                : libebml v1.3.1 + libmatroska v1.4.2


Video
ID                             : 1
Format                         : HEVC
Format/Info                    : High Efficiency Video Coding
Format profile                 : Main@L4@Main
Codec ID                       : V_MPEGH/ISO/HEVC
Duration                       : 1 h 41 min
Bit rate                       : 2 599 kb/s
Width                          : 1 920 pixels
Height                         : 816 pixels
Display aspect ratio           : 2.35:1
Frame rate mode                : Constant
Frame rate                     : 23.976 (24000/1001) FPS
Color space                    : YUV
Chroma subsampling             : 4:2:0
Bit depth                      : 8 bits
Bits/(Pixel*Frame)             : 0.069
Stream size                    : 1.83 GiB (82%)
Writing library                : x265 1.8+2-55a4a9b920ff:[Windows][GCC 5.2.0][64 bit] 8bit+10bit+12bit
Encoding settings              : wpp / ctu=64 / min-cu-size=8 / max-tu-size=32 / tu-intra-depth=1 / tu-inter-depth=1 / me=1 / subme=2 / merange=57 / no-rect / no-amp / max-merge=2 / temporal-mvp / no-early-skip / rdpenalty=0 / no-tskip / no-tskip-fast / strong-intra-smoothing / no-lossless / no-cu-lossless / no-constrained-intra / no-fast-intra / open-gop / no-temporal-layers / interlace=0 / keyint=250 / min-keyint=23 / scenecut=40 / rc-lookahead=20 / lookahead-slices=0 / bframes=4 / bframe-bias=0 / b-adapt=2 / ref=3 / limit-refs=0 / weightp / no-weightb / aq-mode=1 / qg-size=32 / aq-strength=0.00 / cbqpoffs=0 / crqpoffs=0 / rd=3 / psy-rd=0.00 / rdoq-level=0 / psy-rdoq=0.00 / signhide / deblock / sao / no-sao-non-deblock / b-pyramid / cutree / rc=2 / pass / bitrate=2598 / qcomp=0.60 / qpmin=0 / qpmax=51 / qpstep=4 / cplxblur=20.0 / qblur=0.5 / ipratio=1.40 / pbratio=1.30
Default                        : Yes
Forced                         : No


Audio #1
ID                             : 2
Format                         : AC-3
Format/Info                    : Audio Coding 3
Commercial name                : Dolby Digital
Codec ID                       : A_AC3
Duration                       : 1 h 41 min
Bit rate mode                  : Constant
Bit rate                       : 448 kb/s
Channel(s)                     : 6 channels
Channel layout                 : L R C LFE Ls Rs
Sampling rate                  : 48.0 kHz
Frame rate                     : 31.250 FPS (1536 SPF)
Compression mode               : Lossy
Stream size                    : 324 MiB (14%)
Language                       : English
Service kind                   : Complete Main
Default                        : Yes
Forced                         : No


Audio #2
ID                             : 3
Format                         : AAC LC
Format/Info                    : Advanced Audio Codec Low Complexity
Codec ID                       : A_AAC-2
Duration                       : 1 h 41 min
Bit rate                       : 132 kb/s
Channel(s)                     : 2 channels
Channel layout                 : L R
Sampling rate                  : 44.1 kHz
Frame rate                     : 43.066 FPS (1024 SPF)
Compression mode               : Lossy
Stream size                    : 96.0 MiB (4%)
Language                       : Chinese
Default                        : No
Forced                         : No


Text
ID                             : 4
Format                         : UTF-8
Codec ID                       : S_TEXT/UTF8
Codec ID/Info                  : UTF-8 Plain Text
Duration                       : 1 h 35 min
Bit rate                       : 35 b/s
Count of elements              : 1067
Stream size                    : 24.8 KiB (0%)
Language                       : Chinese
Default                        : Yes
Forced                         : No


链接:>>点击进入百度云下载<<(←购买前请先验证分享链接是否有效)
提取码:
此处内容付费可见

向楼主支付【游币】或成为【特权组】才能显示 已有 43 人购买 

支付 10 游币 成为特权组
楼主精华帖
回复

使用道具 举报

签到天数: 83 天

[LV.6]常住居民II

0

主题

461

帖子

1300

积分

Rank: 8Rank: 8

阅读权限
50
游币
562
精品值
0
热心值
0
分享值
0
在线时间
277 小时
注册时间
2018-4-13
最后登录
2020-5-27
发表于 2020-5-6 12:49:11 | 显示全部楼层
这部电影没看过,谢谢!
回复 支持 反对

使用道具 举报

签到天数: 30 天

[LV.5]常住居民I

6

主题

1016

帖子

4609

积分

Rank: 16Rank: 16Rank: 16Rank: 16

阅读权限
70
游币
3097
精品值
9
热心值
0
分享值
9
在线时间
460 小时
注册时间
2016-9-19
最后登录
2020-5-27
发表于 2020-5-6 13:16:57 | 显示全部楼层
这部电影没看过,谢谢!
回复 支持 反对

使用道具 举报

签到天数: 498 天

[LV.9]以坛为家II

2

主题

3121

帖子

3548

积分

Rank: 8Rank: 8

阅读权限
50
游币
45
精品值
0
热心值
0
分享值
0
在线时间
382 小时
注册时间
2018-11-24
最后登录
2020-5-27
发表于 2020-5-6 13:18:07 | 显示全部楼层
楼主如此诚意的分享如此精彩的内容,必须赞!我想我是一天也不能离开慢慢游。
回复 支持 反对

使用道具 举报

签到天数: 357 天

[LV.8]以坛为家I

95

主题

1185

帖子

8万

积分

Rank: 64Rank: 64Rank: 64Rank: 64Rank: 64Rank: 64Rank: 64Rank: 64Rank: 64Rank: 64Rank: 64Rank: 64Rank: 64Rank: 64Rank: 64Rank: 64

阅读权限
110
游币
80001
精品值
75
热心值
0
分享值
136
在线时间
405 小时
注册时间
2019-5-21
最后登录
2020-5-27

活跃会员热心会员分享达人灌水之王

发表于 2020-5-6 13:59:18 | 显示全部楼层
谢谢你的!!!!!
回复

使用道具 举报

签到天数: 898 天

[LV.10]以坛为家III

0

主题

2369

帖子

3708

积分

Rank: 8Rank: 8

阅读权限
50
游币
701
精品值
0
热心值
0
分享值
0
在线时间
638 小时
注册时间
2015-3-6
最后登录
2020-5-23
发表于 2020-5-6 14:05:42 | 显示全部楼层
回味历史,丰富知识。
回复 支持 反对

使用道具 举报

签到天数: 607 天

[LV.9]以坛为家II

437

主题

3983

帖子

1万

积分

Rank: 32Rank: 32Rank: 32Rank: 32Rank: 32Rank: 32Rank: 32Rank: 32

阅读权限
90
游币
8730
精品值
96
热心值
1
分享值
42
在线时间
4015 小时
注册时间
2018-7-9
最后登录
2020-5-28

巨蟹座

发表于 2020-5-6 16:22:03 | 显示全部楼层
楼主如此诚意的分享如此精彩的内容,必须赞!我想我是一天也不能离开慢慢游。
回复 支持 反对

使用道具 举报

签到天数: 892 天

[LV.10]以坛为家III

10

主题

1747

帖子

6977

积分

Rank: 16Rank: 16Rank: 16Rank: 16

阅读权限
70
游币
4524
精品值
143
热心值
0
分享值
0
在线时间
420 小时
注册时间
2017-10-1
最后登录
2020-5-27
发表于 2020-5-6 16:50:58 | 显示全部楼层
楼主如此诚意的分享如此精彩的内容,必须赞!我想我是一天也不能离开慢慢游。
回复 支持 反对

使用道具 举报

签到天数: 186 天

[LV.7]常住居民III

0

主题

510

帖子

833

积分

Rank: 4

阅读权限
30
游币
246
精品值
0
热心值
0
分享值
0
在线时间
77 小时
注册时间
2019-10-12
最后登录
2020-5-27
发表于 2020-5-6 16:56:10 | 显示全部楼层
楼主发贴辛苦了,谢谢楼主的精彩分享!我觉得慢慢游是注册对了!
回复 支持 反对

使用道具 举报

签到天数: 348 天

[LV.8]以坛为家I

0

主题

535

帖子

1607

积分

Rank: 8Rank: 8

阅读权限
50
游币
836
精品值
0
热心值
0
分享值
0
在线时间
236 小时
注册时间
2014-9-17
最后登录
2020-5-27
发表于 2020-5-6 17:31:40 | 显示全部楼层
楼主发贴辛苦了,谢谢楼主的精彩分享!我觉得慢慢游是注册对了!
回复 支持 反对

使用道具 举报

回帖须知
本站严禁灌水回复以及讽刺辱骂分享者的行为,轻者扣分警告,重者直接永久封禁。发帖前请详读:点击进入 。以免永久封禁。
 懒得打字?点击快捷回复➔➔ 
您需要登录后才可以回帖 登录 | 我要注册

本版积分规则

小黑屋|手机版|慢慢游社区 ( 站务处理service@mmyfilm.com )

GMT+8, 2020-5-28 05:16 , Processed in 0.168385 second(s), 35 queries .

Powered by Discuz! X3.4

© 2001-2013 Comsenz Inc.

快速回复 返回顶部 返回列表