慢慢游社区

 找回密码
 我要注册
搜索
查看: 1547|回复: 116

[国英多音轨] 【百度网盘】[魔窟].The.Cave.2005.BluRay.1080P.x265.Hevc(10bit).mkv.公映国语/英语3.34G

  [复制链接]

签到天数: 52 天

[LV.5]常住居民I

9

主题

141

帖子

3973

积分

Rank: 16Rank: 16Rank: 16Rank: 16

阅读权限
70
游币
3595
精品值
56
热心值
0
分享值
30
在线时间
65 小时
注册时间
2019-10-3
最后登录
2020-6-4
发表于 2020-5-6 12:17:22 | 显示全部楼层 |阅读模式
) 慢慢游社区mmy.la_p2165824447.webp.jpg 导演: Bruce Hunt编剧: Michael Steinberg / Tegan West
主演: 摩里斯·切斯塔特 / 艾迪·斯比安 / Cole Hause
类型: 动作 / 惊悚 / 恐怖 / 冒险
官方网站: http://www.sonypictures.com/movies/thecave/
制片国家/地区: 美国 / 德国
语言: 英语 / 罗马尼亚语
上映日期: 2005-08-26(美国)
片长: 97 分钟 / Germany: 93 分钟(DVD version)
又名: 异底洞(台) / 魔洞余生 / 惊心洞吓
IMDb链接: tt0402901

魔窟的剧情简介 · · · · · ·  杰克(科尔•豪瑟 Cole Hauser 饰)与泰勒(艾迪•斯比安 Cole Hauser 饰)两兄弟是两个酷爱探险的洞窟专家,在生物专家尼古拉(Marcel Iures 饰)和詹妮丝博士(Lena Headey 饰)的邀请下,他们携经验丰富的团队来到罗马尼亚卡尔巴阡山脉,准备对偶然在这里发现的巨大洞穴以及其中的古教堂进行勘查。
  探险队员布里格斯(Rick Ravanello 饰)最先入水勘测,但通讯后不久便和队友失去联系。为了安全起见,杰克与泰勒决定全体出发寻找。沿途他们见到各种前所未见的古怪生物,原来在这座封闭的山洞里,竟有着一个完全独立的古生物系统。但是这些发现并未给他们带来太多惊喜,这群探险者已被困在山洞里,而来自未知生物的威胁正渐渐逼向他们……


慢慢游社区mmy.la_魔窟.The.Cave.2005.BluRay.1080P.x265.Hevc(10bit)Wsyhgbs.mkv_20200506_120817.525.jpg 慢慢游社区mmy.la_魔窟.The.Cave.2005.BluRay.1080P.x265.Hevc(10bit)Wsyhgbs.mkv_20200506_115720.985.jpg 慢慢游社区mmy.la_魔窟.The.Cave.2005.BluRay.1080P.x265.Hevc(10bit)Wsyhgbs.mkv_20200506_115725.136.jpg 慢慢游社区mmy.la_魔窟.The.Cave.2005.BluRay.1080P.x265.Hevc(10bit)Wsyhgbs.mkv_20200506_115805.235.jpg 慢慢游社区mmy.la_魔窟.The.Cave.2005.BluRay.1080P.x265.Hevc(10bit)Wsyhgbs.mkv_20200506_115830.071.jpg 慢慢游社区mmy.la_魔窟.The.Cave.2005.BluRay.1080P.x265.Hevc(10bit)Wsyhgbs.mkv_20200506_115923.140.jpg 慢慢游社区mmy.la_魔窟.The.Cave.2005.BluRay.1080P.x265.Hevc(10bit)Wsyhgbs.mkv_20200506_115936.776.jpg 慢慢游社区mmy.la_魔窟.The.Cave.2005.BluRay.1080P.x265.Hevc(10bit)Wsyhgbs.mkv_20200506_120043.195.jpg 慢慢游社区mmy.la_魔窟.The.Cave.2005.BluRay.1080P.x265.Hevc(10bit)Wsyhgbs.mkv_20200506_120122.043.jpg 慢慢游社区mmy.la_魔窟.The.Cave.2005.BluRay.1080P.x265.Hevc(10bit)Wsyhgbs.mkv_20200506_120316.949.jpg 慢慢游社区mmy.la_魔窟.The.Cave.2005.BluRay.1080P.x265.Hevc(10bit)Wsyhgbs.mkv_20200506_120347.470.jpg 慢慢游社区mmy.la_魔窟.The.Cave.2005.BluRay.1080P.x265.Hevc(10bit)Wsyhgbs.mkv_20200506_120433.256.jpg 慢慢游社区mmy.la_魔窟.The.Cave.2005.BluRay.1080P.x265.Hevc(10bit)Wsyhgbs.mkv_20200506_120653.615.jpg 慢慢游社区mmy.la_魔窟.The.Cave.2005.BluRay.1080P.x265.Hevc(10bit)Wsyhgbs.mkv_20200506_120659.518.jpg 慢慢游社区mmy.la_魔窟.The.Cave.2005.BluRay.1080P.x265.Hevc(10bit)Wsyhgbs.mkv_20200506_120750.370.jpg

General
Unique ID                      : 240469601187356831187323022133882042063 (0xB4E8C2B4552C183EA3D23FA7E40CB6CF)
Complete name                  : 魔窟.The.Cave.2005.BluRay.1080P.x265.Hevc(10bit).mkv
Format                         : Matroska
Format version                 : Version 4
File size                      : 3.35 GiB
Duration                       : 1 h 37 min
Overall bit rate               : 4 932 kb/s
Movie name                     : Ad.Astra.2019.1080p.BluRay.REMUX.AVC.DTS-HD.MA.TrueHD.7.1.Atmos-FGT
Encoded date                   : UTC 2019-12-18 05:18:53
Writing application            : mkvmerge v8.1.0 ('Psychedelic Postcard') 64bit
Writing library                : libebml v1.3.1 + libmatroska v1.4.2

Video
ID                             : 1
Format                         : HEVC
Format/Info                    : High Efficiency Video Coding
Format profile                 : Main 10@L4@Main
Codec ID                       : V_MPEGH/ISO/HEVC
Duration                       : 1 h 37 min
Bit rate                       : 3 897 kb/s
Width                          : 1 920 pixels
Height                         : 800 pixels
Display aspect ratio           : 2.40:1
Frame rate mode                : Constant
Frame rate                     : 23.976 (24000/1001) FPS
Color space                    : YUV
Chroma subsampling             : 4:2:0
Bit depth                      : 10 bits
Bits/(Pixel*Frame)             : 0.106
Stream size                    : 2.64 GiB (79%)
Writing library                : x265 3.0_Au+7-cb3e172a5f51:[Windows][GCC 8.3.0][64 bit] 10bit
Encoding settings              : cpuid=1049583 / frame-threads=3 / numa-pools=8 / wpp / no-pmode / no-pme / no-psnr / no-ssim / log-level=2 / input-csp=1 / input-res=1920x800 / interlace=0 / total-frames=139757 / level-idc=0 / high-tier=1 / uhd-bd=0 / ref=3 / no-allow-non-conformance / no-repeat-headers / annexb / no-aud / no-hrd / info / hash=0 / no-temporal-layers / open-gop / min-keyint=23 / keyint=250 / gop-lookahead=0 / bframes=4 / b-adapt=2 / b-pyramid / bframe-bias=0 / rc-lookahead=20 / lookahead-slices=5 / scenecut=40 / radl=0 / no-splice / no-intra-refresh / ctu=64 / min-cu-size=8 / no-rect / no-amp / max-tu-size=32 / tu-inter-depth=1 / tu-intra-depth=1 / limit-tu=0 / rdoq-level=0 / dynamic-rd=0.00 / no-ssim-rd / signhide / no-tskip / nr-intra=0 / nr-inter=0 / no-constrained-intra / strong-intra-smoothing / max-merge=2 / limit-refs=3 / no-limit-modes / me=1 / subme=2 / merange=57 / temporal-mvp / weightp / no-weightb / no-analyze-src-pics / deblock=0:0 / sao / no-sao-non-deblock / rd=3 / no-early-skip / rskip / no-fast-intra / no-tskip-fast / no-cu-lossless / no-b-intra / no-splitrd-skip / rdpenalty=0 / psy-rd=2.00 / psy-rdoq=0.00 / no-rd-refine / no-lossless / cbqpoffs=0 / crqpoffs=0 / rc=crf / crf=19.0 / qcomp=0.60 / qpstep=4 / stats-write=0 / stats-read=0 / ipratio=1.40 / pbratio=1.30 / aq-mode=2 / aq-strength=1.00 / cutree / zone-count=0 / no-strict-cbr / qg-size=32 / no-rc-grain / qpmax=69 / qpmin=0 / no-const-vbv / sar=0 / overscan=0 / videoformat=5 / range=0 / colorprim=2 / transfer=2 / colormatrix=2 / chromaloc=0 / display-window=0 / max-cll=0,0 / min-luma=0 / max-luma=1023 / log2-max-poc-lsb=8 / vui-timing-info / vui-hrd-info / slices=1 / no-opt-qp-pps / no-opt-ref-list-length-pps / no-multi-pass-opt-rps / scenecut-bias=0.05 / no-opt-cu-delta-qp / no-aq-motion / no-hdr / no-hdr-opt / no-dhdr10-opt / no-idr-recovery-sei / analysis-reuse-level=5 / scale-factor=0 / refine-intra=0 / refine-inter=0 / refine-mv=0 / refine-ctu-distortion=0 / no-limit-sao / ctu-info=0 / no-lowpass-dct / refine-analysis-type=0 / copy-pic=1 / max-ausize-factor=1.0 / no-dynamic-refine / no-single-sei / no-hevc-aq / no-svt / qp-adaptation-range=1.00
Default                        : Yes
Forced                         : No

Audio #1
ID                             : 2
Format                         : AAC LC
Format/Info                    : Advanced Audio Codec Low Complexity
Codec ID                       : A_AAC-2
Duration                       : 1 h 37 min
Bit rate                       : 612 kb/s
Channel(s)                     : 6 channels
Channel layout                 : C L R Ls Rs LFE
Sampling rate                  : 48.0 kHz
Frame rate                     : 46.875 FPS (1024 SPF)
Compression mode               : Lossy
Stream size                    : 425 MiB (12%)
Title                          : LC AAC 612 kbs, 5,1ch
Language                       : English
Default                        : Yes
Forced                         : No

Audio #2
ID                             : 3
Format                         : AC-3
Format/Info                    : Audio Coding 3
Commercial name                : Dolby Digital
Codec ID                       : A_AC3
Duration                       : 1 h 37 min
Bit rate mode                  : Constant
Bit rate                       : 384 kb/s
Channel(s)                     : 6 channels
Channel layout                 : L R C LFE Ls Rs
Sampling rate                  : 48.0 kHz
Frame rate                     : 31.250 FPS (1536 SPF)
Compression mode               : Lossy
Stream size                    : 267 MiB (8%)
Title                          : Mandarin Dolby Digital Audio 5.1 @ 384 kbps  上译国配 by  Linyb8399@beAst
Language                       : Chinese
Service kind                   : Complete Main
Default                        : No
Forced                         : No

Text #1
ID                             : 4
Format                         : PGS
Muxing mode                    : zlib
Codec ID                       : S_HDMV/PGS
Codec ID/Info                  : Picture based subtitle format used on BDs/HD-DVDs
Duration                       : 1 h 30 min
Bit rate                       : 8 898 b/s
Count of elements              : 1678
Stream size                    : 5.78 MiB (0%)
Title                          : Chs/SUP  R6.对应英语简体
Language                       : Chinese
Default                        : No
Forced                         : No

Text #2
ID                             : 5
Format                         : PGS
Muxing mode                    : zlib
Codec ID                       : S_HDMV/PGS
Codec ID/Info                  : Picture based subtitle format used on BDs/HD-DVDs
Duration                       : 1 h 32 min
Bit rate                       : 9 471 b/s
Count of elements              : 1808
Stream size                    : 6.26 MiB (0%)
Title                          : Chs/SUP  R6.对应上译国语简体
Language                       : Chinese
Default                        : No
Forced                         : No

Text #3
ID                             : 6
Format                         : PGS
Muxing mode                    : zlib
Codec ID                       : S_HDMV/PGS
Codec ID/Info                  : Picture based subtitle format used on BDs/HD-DVDs
Duration                       : 1 h 30 min
Bit rate                       : 9 533 b/s
Count of elements              : 1634
Stream size                    : 6.19 MiB (0%)
Title                          : Chs/SUP  R3简体(HK)
Language                       : Chinese
Default                        : Yes
Forced                         : No

Text #4
ID                             : 7
Format                         : PGS
Muxing mode                    : zlib
Codec ID                       : S_HDMV/PGS
Codec ID/Info                  : Picture based subtitle format used on BDs/HD-DVDs
Duration                       : 1 h 30 min
Bit rate                       : 10.0 kb/s
Count of elements              : 1634
Stream size                    : 6.51 MiB (0%)
Title                          : Cht/SUP  R3繁体(HK)
Language                       : Chinese
Default                        : No
Forced                         : No


H265、10bit。很早以前了音轨来自CMCT。我发布的视频全部为HEVC/H265格式。
链接:>>点击进入百度云下载<<(←购买前请先验证分享链接是否有效)
提取码:
此处内容付费可见

向楼主支付【游币】或成为【特权组】才能显示 已有 95 人购买 

支付 10 游币 成为特权组
楼主精华帖
回复

使用道具 举报

签到天数: 355 天

[LV.8]以坛为家I

0

主题

490

帖子

8339

积分

Rank: 16Rank: 16Rank: 16Rank: 16

阅读权限
70
游币
7652
精品值
0
热心值
0
分享值
0
在线时间
197 小时
注册时间
2018-8-14
最后登录
2020-6-4
发表于 2020-5-6 12:22:18 | 显示全部楼层
这东西我收了!谢谢楼主!有慢慢游真好!
回复 支持 反对

使用道具 举报

签到天数: 364 天

[LV.8]以坛为家I

95

主题

1193

帖子

8万

积分

Rank: 64Rank: 64Rank: 64Rank: 64Rank: 64Rank: 64Rank: 64Rank: 64Rank: 64Rank: 64Rank: 64Rank: 64Rank: 64Rank: 64Rank: 64Rank: 64

阅读权限
110
游币
80366
精品值
75
热心值
0
分享值
136
在线时间
407 小时
注册时间
2019-5-21
最后登录
2020-6-4

活跃会员热心会员分享达人灌水之王

发表于 2020-5-6 12:24:45 来自手机 | 显示全部楼层
谢谢你的分享!!!
回复 支持 反对

使用道具 举报

签到天数: 140 天

[LV.7]常住居民III

0

主题

613

帖子

876

积分

Rank: 4

阅读权限
30
游币
234
精品值
0
热心值
0
分享值
0
在线时间
29 小时
注册时间
2019-12-24
最后登录
2020-6-3
发表于 2020-5-6 12:47:17 | 显示全部楼层
楼主发贴辛苦了,谢谢楼主的精彩分享!我觉得慢慢游是注册对了!
回复 支持 反对

使用道具 举报

签到天数: 75 天

[LV.6]常住居民II

0

主题

86

帖子

1108

积分

Rank: 8Rank: 8

阅读权限
50
游币
999
精品值
0
热心值
0
分享值
0
在线时间
23 小时
注册时间
2020-3-10
最后登录
2020-6-4
发表于 2020-5-6 13:04:19 | 显示全部楼层
楼主发贴辛苦了,谢谢楼主的精彩分享!我觉得慢慢游是注册对了!
回复 支持 反对

使用道具 举报

签到天数: 30 天

[LV.5]常住居民I

5

主题

1027

帖子

4622

积分

Rank: 16Rank: 16Rank: 16Rank: 16

阅读权限
70
游币
3090
精品值
9
热心值
0
分享值
9
在线时间
470 小时
注册时间
2016-9-19
最后登录
2020-6-2
发表于 2020-5-6 13:15:11 | 显示全部楼层

这东西我收了!谢谢楼主!有慢慢游真好!
回复 支持 反对

使用道具 举报

签到天数: 1208 天

[LV.10]以坛为家III

0

主题

1323

帖子

2万

积分

Rank: 32Rank: 32Rank: 32Rank: 32Rank: 32Rank: 32Rank: 32Rank: 32

阅读权限
90
游币
26322
精品值
118
热心值
0
分享值
0
在线时间
581 小时
注册时间
2016-3-31
最后登录
2020-6-4
发表于 2020-5-6 13:45:14 | 显示全部楼层
楼主发贴辛苦了,谢谢楼主的精彩分享!我觉得慢慢游是注册对了!
回复 支持 反对

使用道具 举报

签到天数: 950 天

[LV.10]以坛为家III

236

主题

4998

帖子

6万

积分

Rank: 64Rank: 64Rank: 64Rank: 64Rank: 64Rank: 64Rank: 64Rank: 64Rank: 64Rank: 64Rank: 64Rank: 64Rank: 64Rank: 64Rank: 64Rank: 64

阅读权限
110
游币
59045
精品值
2130
热心值
2
分享值
67
在线时间
1384 小时
注册时间
2014-9-22
最后登录
2020-6-2

活跃会员灌水之王最佳新人

发表于 2020-5-6 13:51:34 | 显示全部楼层
这样的小片留点挺好,谢谢楼主分享资源。
回复 支持 反对

使用道具 举报

签到天数: 154 天

[LV.7]常住居民III

4

主题

791

帖子

1608

积分

Rank: 8Rank: 8

阅读权限
50
游币
590
精品值
0
热心值
0
分享值
0
在线时间
227 小时
注册时间
2019-12-28
最后登录
2020-6-4
发表于 2020-5-6 14:15:26 | 显示全部楼层
楼主发贴辛苦了,谢谢楼主的精彩分享!我觉得慢慢游是注册对了!
回复 支持 反对

使用道具 举报

签到天数: 30 天

[LV.5]常住居民I

1

主题

309

帖子

505

积分

Rank: 4

阅读权限
30
游币
176
精品值
0
热心值
0
分享值
0
在线时间
20 小时
注册时间
2020-5-5
最后登录
2020-6-3
发表于 2020-5-6 14:37:34 | 显示全部楼层
没有内容简介,也没个截图?就这么简单
回复 支持 反对

使用道具 举报

回帖须知
本站严禁灌水回复以及讽刺辱骂分享者的行为,轻者扣分警告,重者直接永久封禁。发帖前请详读:点击进入 。以免永久封禁。
 懒得打字?点击快捷回复➔➔ 
您需要登录后才可以回帖 登录 | 我要注册

本版积分规则

小黑屋|手机版|慢慢游社区 ( 站务处理service@mmyfilm.com )

GMT+8, 2020-6-4 12:04 , Processed in 0.215406 second(s), 35 queries .

Powered by Discuz! X3.4

© 2001-2013 Comsenz Inc.

快速回复 返回顶部 返回列表