慢慢游社区

 找回密码
 我要注册
搜索
查看: 2534|回复: 491

[国英多音轨] [百度云][终结者6:黑暗命运][美国][国英双语][2019年][BluRay.1080p/MKV/中英字幕/12.6G]纯净版

  [复制链接]

签到天数: 109 天

[LV.6]常住居民II

20

主题

432

帖子

6907

积分

Rank: 16Rank: 16Rank: 16Rank: 16

阅读权限
70
游币
5810
精品值
17
热心值
0
分享值
76
在线时间
479 小时
注册时间
2016-7-30
最后登录
2020-4-3
发表于 2020-3-22 20:10:52 | 显示全部楼层 |阅读模式
本帖最后由 清淡如风 于 2020-3-22 20:30 编辑



本资源根据网络SPARKS 1080p 版视频,合成坛友qihong24发布的公映配音音轨,视频纯净无水印。在此感谢qihong24提供的国语资源!
慢慢游社区mmy.la_terminator.dark.fate.2019.1080p.bluray.x264-sparks.jpg

◎译  名 终结者:黑暗命运 / Terminator 6 / 未来战士:黑暗命运(港) / 终结者2019 / 终结者6 / 终结者6:黑暗命运 / 终结者6:黑暗宿命 / 魔鬼终结者:黑暗宿命(台)
◎片  名 Terminator: Dark Fate
◎年  代 2019
◎产  地 美国 / 中国大陆
◎类  别 动作 / 科幻 / 冒险
◎语  言 公映配音:AC3 192kb/s /英语:
TrueHD 4 633 kb/s
◎上映日期 2019-10-23(法国) / 2019-11-01(美国/中国大陆)
◎IMDb评分  6.4/10 from 60728 users
◎IMDb链接  https://www.imdb.com/title/tt6450804
◎豆瓣评分 7.1/10 from 86363 users
◎豆瓣链接 https://movie.douban.com/subject/27109633/
◎片  长 128分钟
◎导  演 蒂姆·米勒 Tim Miller
◎编  剧 詹姆斯·卡梅隆 James Cameron / 查尔斯·H·伊格里 Charles H. Eglee / 乔什·弗莱德曼 Josh Friedman / 大卫·S·高耶 David S. Goyer / 贾斯汀·罗德斯 Justin Rhodes / 比利·雷 Billy Ray / 盖尔·安妮·赫德 Gale Anne Hurd
◎主  演 麦肯兹·戴维斯 Mackenzie Davis
       娜塔利娅·雷耶斯 Natalia Reyes
       琳达·汉密尔顿 Linda Hamilton
       阿诺·施瓦辛格 Arnold Schwarzenegger
       加布里埃尔·鲁纳 Gabriel Luna
       迪耶戈·博内塔 Diego Boneta
       恩里克·阿尔切 Enrique Arce
       特里斯坦·乌罗阿 Tristán Ulloa
       艾丽西娅·博拉切罗 Alicia Borrachero
       布雷特·阿扎尔 Brett Azar
       史蒂芬·克里 Steven Cree
       罗谢尔·尼尔 Rochelle Neil
       弗雷泽·杰姆斯 Fraser James
       克劳迪娅·特鲁希略 Claudia Trujillo
       比约恩·弗赖贝格 Bj?rn Freiberg
       约翰·盖蒂尔 John Gettier
       彼得·奥蒙德 Peter Ormond
       Lorna Brown
       Peter Schueller


◎标  签 科幻 | 动作 | 美国 | 机器人 | 2019 | 情怀 | 冒险 | 剧情

◎简  介  

  《终结者2:审判日》发生的27年后,由于未来天网派来T-800成功杀死年幼的约翰,以致令未来产生变化,一个全新进化的液态金属终结者从未来派出,目的是追杀持有关键讯息的丹妮·拉莫斯、半生化人葛蕾丝和她的朋友。这使莎拉·康纳以及成功杀死约翰的T800终结者前来帮助她们一行人,以共同为了人类的未来而战。

◎获奖情况  

  第6届豆瓣电影年度榜单(2019)
  评分最高的科幻/动作片(提名)


资源参数:
General
Unique ID                      : 254572065021338245436750194391219143957 (0xBF84CBDA81E7C29793086D99F88B8515)
Complete name                  : D:\down\终结者6:黑暗命运\终结者6:黑暗命运.Terminator.Dark.Fate.2019.1080p.BluRay.x264-SPARKS.公映配音.英语.mkv
Format                         : Matroska
Format version                 : Version 4
File size                      : 12.6 GiB
Duration                       : 2 h 8 min
Overall bit rate mode          : Variable
Overall bit rate               : 14.1 Mb/s
Encoded date                   : UTC 2020-03-22 07:04:04
Writing application            : mkvmerge v7.9.0 ('Birds') 64bit
Writing library                : libebml v1.3.1 + libmatroska v1.4.2

Video
ID                             : 1
Format                         : AVC
Format/Info                    : Advanced Video Codec
Format profile                 : High@L4.1
Format settings                : CABAC / 5 Ref Frames
Format settings, CABAC         : Yes
Format settings, Reference fra : 5 frames
Codec ID                       : V_MPEG4/ISO/AVC
Duration                       : 2 h 8 min
Bit rate                       : 9 134 kb/s
Width                          : 1 920 pixels
Height                         : 808 pixels
Display aspect ratio           : 2.40:1
Frame rate mode                : Constant
Frame rate                     : 23.976 (24000/1001) FPS
Color space                    : YUV
Chroma subsampling             : 4:2:0
Bit depth                      : 8 bits
Scan type                      : Progressive
Bits/(Pixel*Frame)             : 0.246
Stream size                    : 8.17 GiB (65%)
Title                          : 终结者6.Terminator.Dark.Fate.2019.1080p.BluRay.x264-SPARKS.公映配音.英语
Writing library                : x264 core 159 r2991 1771b55
Encoding settings              : cabac=1 / ref=5 / deblock=1:-3:-3 / analyse=0x3:0x113 / me=umh / subme=8 / psy=1 / psy_rd=1.00:0.00 / mixed_ref=1 / me_range=16 / chroma_me=1 / trellis=1 / 8x8dct=1 / cqm=0 / deadzone=21,11 / fast_pskip=1 / chroma_qp_offset=-2 / threads=25 / lookahead_threads=4 / sliced_threads=0 / nr=0 / decimate=1 / interlaced=0 / bluray_compat=0 / constrained_intra=0 / bframes=3 / b_pyramid=2 / b_adapt=1 / b_bias=0 / direct=3 / weightb=1 / open_gop=0 / weightp=2 / keyint=250 / keyint_min=23 / scenecut=40 / intra_refresh=0 / rc_lookahead=50 / rc=2pass / mbtree=1 / bitrate=9134 / ratetol=1.0 / qcomp=0.60 / qpmin=0 / qpmax=69 / qpstep=4 / cplxblur=20.0 / qblur=0.5 / ip_ratio=1.40 / aq=1:1.00
Language                       : Chinese
Default                        : Yes
Forced                         : No

Audio #1
ID                             : 2
Format                         : AC-3
Format/Info                    : Audio Coding 3
Commercial name                : Dolby Digital
Codec ID                       : A_AC3
Duration                       : 2 h 8 min
Bit rate mode                  : Constant
Bit rate                       : 192 kb/s
Channel(s)                     : 2 channels
Channel layout                 : L R
Sampling rate                  : 44.1 kHz
Frame rate                     : 28.711 FPS (1536 SPF)
Bit depth                      : 16 bits
Compression mode               : Lossy
Stream size                    : 176 MiB (1%)
Title                          : 公映配音
Language                       : Chinese
Service kind                   : Complete Main
Default                        : Yes
Forced                         : No

Audio #2
ID                             : 4
Format                         : MLP FBA 16-ch
Format/Info                    : Meridian Lossless Packing FBA with 16-channel presentation
Commercial name                : Dolby TrueHD with Dolby Atmos
Codec ID                       : A_TRUEHD
Duration                       : 2 h 8 min
Bit rate mode                  : Variable
Bit rate                       : 4 633 kb/s
Maximum bit rate               : 8 247 kb/s
Channel(s)                     : 8 channels
Channel layout                 : L R C LFE Ls Rs Lb Rb
Sampling rate                  : 48.0 kHz
Frame rate                     : 1 200.000 FPS (40 SPF)
Compression mode               : Lossless
Stream size                    : 4.15 GiB (33%)
Title                          : TrueHD
Language                       : English
Default                        : No
Forced                         : No
Number of dynamic objects      : 11
Bed channel count              : 1 channel
Bed channel configuration      : LFE

Text #1
ID                             : 3
Format                         : PGS
Muxing mode                    : zlib
Codec ID                       : S_HDMV/PGS
Codec ID/Info                  : Picture based subtitle format used on BDs/HD-DVDs
Duration                       : 1 h 59 min
Bit rate                       : 20.1 kb/s
Count of elements              : 5289
Stream size                    : 17.1 MiB (0%)
Language                       : Chinese
Default                        : Yes
Forced                         : No

Text #2
ID                             : 5
Format                         : PGS
Muxing mode                    : zlib
Codec ID                       : S_HDMV/PGS
Codec ID/Info                  : Picture based subtitle format used on BDs/HD-DVDs
Duration                       : 1 h 59 min
Bit rate                       : 20.5 kb/s
Count of elements              : 5289
Stream size                    : 17.5 MiB (0%)
Language                       : Chinese
Default                        : No
Forced                         : No

Text #3
ID                             : 6
Format                         : PGS
Muxing mode                    : zlib
Codec ID                       : S_HDMV/PGS
Codec ID/Info                  : Picture based subtitle format used on BDs/HD-DVDs
Duration                       : 1 h 59 min
Bit rate                       : 25.5 kb/s
Count of elements              : 5046
Stream size                    : 21.7 MiB (0%)
Language                       : Chinese
Default                        : No
Forced                         : No

Text #4
ID                             : 7
Format                         : PGS
Muxing mode                    : zlib
Codec ID                       : S_HDMV/PGS
Codec ID/Info                  : Picture based subtitle format used on BDs/HD-DVDs
Duration                       : 1 h 59 min
Bit rate                       : 25.9 kb/s
Count of elements              : 5046
Stream size                    : 22.1 MiB (0%)
Language                       : Chinese
Default                        : No
Forced                         : No



截图:
慢慢游社区mmy.la_终结者6:黑暗命运.Terminator.Dark.Fate.2019.1080p.BluRay.x264-SPARKS.公映配音.英.jpg 慢慢游社区mmy.la_终结者6:黑暗命运.Terminator.Dark.Fate.2019.1080p.BluRay.x264-SPARKS.公映配音.英.jpg 慢慢游社区mmy.la_终结者6:黑暗命运.Terminator.Dark.Fate.2019.1080p.BluRay.x264-SPARKS.公映配音.英.jpg 慢慢游社区mmy.la_终结者6:黑暗命运.Terminator.Dark.Fate.2019.1080p.BluRay.x264-SPARKS.公映配音.英.jpg 慢慢游社区mmy.la_终结者6:黑暗命运.Terminator.Dark.Fate.2019.1080p.BluRay.x264-SPARKS.公映配音.英.jpg 慢慢游社区mmy.la_终结者6:黑暗命运.Terminator.Dark.Fate.2019.1080p.BluRay.x264-SPARKS.公映配音.英.jpg 慢慢游社区mmy.la_终结者6:黑暗命运.Terminator.Dark.Fate.2019.1080p.BluRay.x264-SPARKS.公映配音.英.jpg 慢慢游社区mmy.la_终结者6:黑暗命运.Terminator.Dark.Fate.2019.1080p.BluRay.x264-SPARKS.公映配音.英.jpg

本帖免费,上传不易,喜欢的请给些分享值,谢谢!

链接:
>>点击进入百度云下载<<(←购买前请先验证分享链接是否有效)
游客,需要您回复成为VIP才能查看隐藏内容





点评

等正版吧 还以为首发呢 一听不行的 白下载了  发表于 3 天前
谨慎下载 这声音不够好 像拿手机录音的 不行 最好标注下  发表于 3 天前

评分

参与人数 21游币 +462 分享值 +20 收起 理由
天使 + 1 慢慢游有你更精彩!
hwarang2000 + 20 + 1
我CNM勒个BB + 2 慢慢游有你更精彩!
789666 + 40 + 1 慢慢游有你更精彩!
3426545 + 1
wbdpy + 1 资源很给力,我们很高兴!
古藤书斋 + 1
逍遥御 + 1 慢慢游有你更精彩!
realwazy + 1 慢慢游有你更精彩!
无边无涯蜗牛壳 + 1 慢慢游有你更精彩!
第一场雪 + 1 慢慢游有你更精彩!
syx525 + 1 如此棒的资源,不赞对不起慢慢游!.
eaglejf + 1
ddiordna + 1
无聊孤客 + 400 + 1
huob + 1 资源很给力,我们很高兴!
gslldd + 1 慢慢游有你更精彩!
laotie + 1 资源很给力,我们很高兴!
lsf987 + 1 慢慢游有你更精彩!
zhhlmh + 1 慢慢游有你更精彩!

查看全部评分

楼主精华帖
回复

使用道具 举报

签到天数: 182 天

[LV.7]常住居民III

0

主题

1393

帖子

3661

积分

Rank: 8Rank: 8

阅读权限
50
游币
1992
精品值
0
热心值
0
分享值
0
在线时间
276 小时
注册时间
2019-5-11
最后登录
2020-4-3
发表于 2020-3-22 20:13:02 | 显示全部楼层
楼主发贴辛苦了,谢谢楼主的精彩分享!
回复 支持 反对

使用道具 举报

签到天数: 529 天

[LV.9]以坛为家II

1

主题

748

帖子

2426

积分

Rank: 8Rank: 8

阅读权限
50
游币
1539
精品值
0
热心值
0
分享值
0
在线时间
139 小时
注册时间
2018-8-23
最后登录
2020-4-3
发表于 2020-3-22 20:14:47 | 显示全部楼层
楼主发贴辛苦了,谢谢楼主的精彩分享!我觉得慢慢游是注册对了!
回复 支持 反对

使用道具 举报

签到天数: 1841 天

[LV.Master]伴坛终老

45

主题

3318

帖子

4万

积分

Rank: 32Rank: 32Rank: 32Rank: 32Rank: 32Rank: 32Rank: 32Rank: 32

阅读权限
90
游币
36599
精品值
68
热心值
0
分享值
40
在线时间
2944 小时
注册时间
2014-12-5
最后登录
2020-4-3

最佳新人

发表于 2020-3-22 20:15:14 | 显示全部楼层
既然你诚信诚意的推荐了,那我就满怀欣喜的看看!
回复 支持 反对

使用道具 举报

签到天数: 1185 天

[LV.10]以坛为家III

0

主题

1639

帖子

3213

积分

Rank: 8Rank: 8

阅读权限
50
游币
656
精品值
0
热心值
0
分享值
0
在线时间
918 小时
注册时间
2014-11-16
最后登录
2020-4-4
发表于 2020-3-22 20:16:46 | 显示全部楼层
那我就看一下吧!
回复 支持 反对

使用道具 举报

签到天数: 10 天

[LV.3]偶尔看看II

0

主题

34

帖子

42

积分

Rank: 2

阅读权限
10
游币
2
精品值
0
热心值
0
分享值
0
在线时间
6 小时
注册时间
2020-2-26
最后登录
2020-4-3
发表于 2020-3-22 20:17:34 | 显示全部楼层
谢谢楼主的精彩分享
回复 支持 反对

使用道具 举报

签到天数: 274 天

[LV.8]以坛为家I

0

主题

436

帖子

2043

积分

Rank: 8Rank: 8

阅读权限
50
游币
1462
精品值
0
热心值
0
分享值
0
在线时间
145 小时
注册时间
2014-6-4
最后登录
2020-4-1
发表于 2020-3-22 20:17:35 | 显示全部楼层
感谢分享!!!!!!
回复

使用道具 举报

签到天数: 299 天

[LV.8]以坛为家I

0

主题

4334

帖子

6209

积分

Rank: 16Rank: 16Rank: 16Rank: 16

阅读权限
70
游币
1405
精品值
0
热心值
0
分享值
0
在线时间
470 小时
注册时间
2019-5-15
最后登录
2020-4-3
发表于 2020-3-22 20:21:00 | 显示全部楼层
感谢楼主的无私分享!要想慢慢游好 就靠你我他
回复 支持 反对

使用道具 举报

签到天数: 283 天

[LV.8]以坛为家I

0

主题

431

帖子

1349

积分

Rank: 8Rank: 8

阅读权限
50
游币
840
精品值
0
热心值
0
分享值
0
在线时间
78 小时
注册时间
2018-9-28
最后登录
2020-4-3
发表于 2020-3-22 20:21:24 | 显示全部楼层
特别感谢你,厉害了哥
回复 支持 反对

使用道具 举报

签到天数: 986 天

[LV.10]以坛为家III

356

主题

3499

帖子

1万

积分

Rank: 32Rank: 32Rank: 32Rank: 32Rank: 32Rank: 32Rank: 32Rank: 32

阅读权限
90
游币
12485
精品值
117
热心值
0
分享值
225
在线时间
946 小时
注册时间
2017-2-4
最后登录
2020-4-3
发表于 2020-3-22 20:23:00 | 显示全部楼层
既然你诚信诚意的推荐了,那我就满怀欣喜的看看!
回复 支持 反对

使用道具 举报

回帖须知
本站严禁灌水回复以及讽刺辱骂分享者的行为,轻者扣分警告,重者直接永久封禁。发帖前请详读:点击进入 。以免永久封禁。
 懒得打字?点击快捷回复➔➔ 
您需要登录后才可以回帖 登录 | 我要注册

本版积分规则

小黑屋|手机版|慢慢游社区 ( 站务处理service@mmyfilm.com )

GMT+8, 2020-4-4 01:37 , Processed in 0.116025 second(s), 32 queries .

Powered by Discuz! X3.4

© 2001-2013 Comsenz Inc.

快速回复 返回顶部 返回列表