慢慢游社区

 找回密码
 我要注册
搜索
查看: 342|回复: 29

[动作] [百度云]学校风云(完整版).School.on.Fire.BluRay.1080p.x264.5AC3.5.1.国粤双语中字 5.11G

[复制链接]

签到天数: 168 天

[LV.7]常住居民III

15

主题

471

帖子

7424

积分

Rank: 16Rank: 16Rank: 16Rank: 16

阅读权限
70
游币
6666
精品值
47
热心值
0
分享值
14
在线时间
165 小时
注册时间
2018-1-9
最后登录
2020-2-23
发表于 2020-2-14 19:56:42 | 显示全部楼层 |阅读模式

慢慢游社区mmy.la_00.jpg
导演: 林岭东
编剧: 南燕
主演: 袁洁莹 / 张耀扬 / 刘松仁 / 林正英 / 郑雷 / [url=]更多...[/url]
类型: 剧情 / 动作 / 惊悚 / 犯罪
制片国家/地区: 中国香港
语言: 国粤语
上映日期: 1988-08-20(中国香港)
片长: 105分钟
又名: School on Fire
IMDb链接: tt0096472
慢慢游社区mmy.la_01.jpg
慢慢游社区mmy.la_02.jpg
慢慢游社区mmy.la_03.jpg
慢慢游社区mmy.la_04.jpg
慢慢游社区mmy.la_05.jpg
慢慢游社区mmy.la_06.jpg
慢慢游社区mmy.la_07.jpg
慢慢游社区mmy.la_08.jpg
慢慢游社区mmy.la_09.jpg
慢慢游社区mmy.la_10.jpg
慢慢游社区mmy.la_11.jpg

General
Unique ID                      : 159175751741996282913348856727685564514 (0x77C02279BC1D25B463AFDBD157180862)
Complete name                  : 学校风云(完整版).1988.BDRip.5AC3.HKFACT.mkv
Format                         : Matroska
Format version                 : Version 4
File size                      : 5.11 GiB
Duration                       : 1 h 44 min
Overall bit rate               : 6 990 kb/s
Encoded date                   : UTC 2019-12-29 13:52:06
Writing application            : mkvmerge v41.0.0 ('Smarra') 32-bit
Writing library                : libebml v1.3.9 + libmatroska v1.5.2

Video
ID                             : 1
Format                         : AVC
Format/Info                    : Advanced Video Codec
Format profile                 : High@L4.1
Format settings                : CABAC / 4 Ref Frames
Format settings, CABAC         : Yes
Format settings, Reference fra : 4 frames
Codec ID                       : V_MPEG4/ISO/AVC
Duration                       : 1 h 44 min
Bit rate                       : 5 000 kb/s
Width                          : 1 920 pixels
Height                         : 1 020 pixels
Display aspect ratio           : 1.882
Frame rate mode                : Constant
Frame rate                     : 23.976 (24000/1001) FPS
Color space                    : YUV
Chroma subsampling             : 4:2:0
Bit depth                      : 8 bits
Scan type                      : Progressive
Bits/(Pixel*Frame)             : 0.106
Stream size                    : 3.66 GiB (72%)
Writing library                : x264 core 157 r2969 d4099dd
Encoding settings              : cabac=1 / ref=4 / deblock=1:-3:-3 / analyse=0x3:0x113 / me=umh / subme=9 / psy=1 / psy_rd=1.00:1.00 / mixed_ref=1 / me_range=32 / chroma_me=1 / trellis=2 / 8x8dct=1 / cqm=0 / deadzone=21,11 / fast_pskip=1 / chroma_qp_offset=-10 / threads=9 / lookahead_threads=1 / sliced_threads=0 / nr=0 / decimate=1 / interlaced=0 / bluray_compat=0 / constrained_intra=0 / bframes=3 / b_pyramid=2 / b_adapt=2 / b_bias=0 / direct=3 / weightb=0 / open_gop=1 / weightp=2 / keyint=230 / keyint_min=22 / scenecut=40 / intra_refresh=0 / rc_lookahead=50 / rc=2pass / mbtree=1 / bitrate=5000 / ratetol=4.0 / qcomp=0.60 / qpmin=10 / qpmax=69 / qpstep=4 / cplxblur=20.0 / qblur=0.5 / vbv_maxrate=50000 / vbv_bufsize=50000 / nal_hrd=none / filler=0 / ip_ratio=1.40 / aq=1:1.00
Language                       : Chinese
Default                        : Yes
Forced                         : No

Audio #1
ID                             : 2
Format                         : AC-3
Format/Info                    : Audio Coding 3
Commercial name                : Dolby Digital
Codec ID                       : A_AC3
Duration                       : 1 h 44 min
Bit rate mode                  : Constant
Bit rate                       : 192 kb/s
Channel(s)                     : 2 channels
Channel layout                 : L R
Sampling rate                  : 48.0 kHz
Frame rate                     : 31.250 FPS (1536 SPF)
Bit depth                      : 16 bits
Compression mode               : Lossy
Stream size                    : 144 MiB (3%)
Title                          : 國語(台版)
Language                       : Chinese
Service kind                   : Complete Main
Default                        : Yes
Forced                         : No

Audio #2
ID                             : 3
Format                         : AC-3
Format/Info                    : Audio Coding 3
Commercial name                : Dolby Digital
Codec ID                       : A_AC3
Duration                       : 1 h 44 min
Bit rate mode                  : Constant
Bit rate                       : 128 kb/s
Channel(s)                     : 2 channels
Channel layout                 : L R
Sampling rate                  : 48.0 kHz
Frame rate                     : 31.250 FPS (1536 SPF)
Bit depth                      : 16 bits
Compression mode               : Lossy
Stream size                    : 95.9 MiB (2%)
Title                          : 國語(港版)
Language                       : Chinese
Service kind                   : Complete Main
Default                        : No
Forced                         : No

Audio #3
ID                             : 4
Format                         : AC-3
Format/Info                    : Audio Coding 3
Commercial name                : Dolby Digital
Codec ID                       : A_AC3
Duration                       : 1 h 44 min
Bit rate mode                  : Constant
Bit rate                       : 640 kb/s
Channel(s)                     : 6 channels
Channel layout                 : L R C LFE Ls Rs
Sampling rate                  : 48.0 kHz
Frame rate                     : 31.250 FPS (1536 SPF)
Bit depth                      : 16 bits
Compression mode               : Lossy
Stream size                    : 479 MiB (9%)
Title                          : 國語(5.1)
Language                       : Chinese
Service kind                   : Complete Main
Default                        : No
Forced                         : No

Audio #4
ID                             : 5
Format                         : AC-3
Format/Info                    : Audio Coding 3
Commercial name                : Dolby Digital
Codec ID                       : A_AC3
Duration                       : 1 h 44 min
Bit rate mode                  : Constant
Bit rate                       : 384 kb/s
Channel(s)                     : 2 channels
Channel layout                 : L R
Sampling rate                  : 48.0 kHz
Frame rate                     : 31.250 FPS (1536 SPF)
Bit depth                      : 16 bits
Compression mode               : Lossy
Stream size                    : 288 MiB (5%)
Title                          : 粵語(2.0)
Language                       : Chinese
Service kind                   : Complete Main
Default                        : No
Forced                         : No

Audio #5
ID                             : 6
Format                         : AC-3
Format/Info                    : Audio Coding 3
Commercial name                : Dolby Digital
Codec ID                       : A_AC3
Duration                       : 1 h 44 min
Bit rate mode                  : Constant
Bit rate                       : 640 kb/s
Channel(s)                     : 6 channels
Channel layout                 : L R C LFE Ls Rs
Sampling rate                  : 48.0 kHz
Frame rate                     : 31.250 FPS (1536 SPF)
Bit depth                      : 16 bits
Compression mode               : Lossy
Stream size                    : 479 MiB (9%)
Title                          : 粵語(5.1)
Language                       : Chinese
Service kind                   : Complete Main
Default                        : No
Forced                         : No

Text #1
ID                             : 7
Format                         : UTF-8
Codec ID                       : S_TEXT/UTF8
Codec ID/Info                  : UTF-8 Plain Text
Duration                       : 1 h 39 min
Bit rate                       : 60 b/s
Count of elements              : 1677
Stream size                    : 44.1 KiB (0%)
Title                          : 簡體中文(國語)
Language                       : Chinese
Default                        : Yes
Forced                         : No

Text #2
ID                             : 8
Format                         : UTF-8
Codec ID                       : S_TEXT/UTF8
Codec ID/Info                  : UTF-8 Plain Text
Duration                       : 1 h 39 min
Bit rate                       : 60 b/s
Count of elements              : 1677
Stream size                    : 44.1 KiB (0%)
Title                          : 繁體中文(國語)
Language                       : Chinese
Default                        : No
Forced                         : No

Text #3
ID                             : 9
Format                         : UTF-8
Codec ID                       : S_TEXT/UTF8
Codec ID/Info                  : UTF-8 Plain Text
Duration                       : 1 h 39 min
Bit rate                       : 60 b/s
Count of elements              : 1686
Stream size                    : 43.9 KiB (0%)
Title                          : 簡體中文(粵語)
Language                       : Chinese
Default                        : No
Forced                         : No

Text #4
ID                             : 10
Format                         : UTF-8
Codec ID                       : S_TEXT/UTF8
Codec ID/Info                  : UTF-8 Plain Text
Duration                       : 1 h 39 min
Bit rate                       : 60 b/s
Count of elements              : 1686
Stream size                    : 43.9 KiB (0%)
Title                          : 繁體中文(粵語)
Language                       : Chinese
Default                        : No
Forced                         : No

链接: >>点击进入百度云下载<<(←购买前请先验证分享链接是否有效)




此处内容付费可见

向楼主支付【游币】或【升级VIP】才能显示 已有 21 人购买 

支付 30 游币 升级VIP
楼主精华帖

签到天数: 1343 天

[LV.10]以坛为家III

1

主题

1960

帖子

3690

积分

Rank: 8Rank: 8

阅读权限
50
游币
340
精品值
55
热心值
0
分享值
4
在线时间
1272 小时
注册时间
2016-1-17
最后登录
2020-2-23

活跃会员

发表于 2020-2-14 20:10:03 | 显示全部楼层
好片子啊 必须收藏

签到天数: 1320 天

[LV.10]以坛为家III

2

主题

2059

帖子

4346

积分

Rank: 16Rank: 16Rank: 16Rank: 16

阅读权限
70
游币
1448
精品值
28
热心值
0
分享值
0
在线时间
783 小时
注册时间
2016-1-15
最后登录
2020-2-22
发表于 2020-2-14 20:10:09 | 显示全部楼层
楼主发贴辛苦了,谢谢楼主的精彩分享!

签到天数: 1 天

[LV.1]初来乍到

3

主题

497

帖子

751

积分

Rank: 4

阅读权限
30
游币
92
精品值
0
热心值
0
分享值
0
在线时间
162 小时
注册时间
2018-12-5
最后登录
2020-2-22
发表于 2020-2-14 20:12:41 | 显示全部楼层
感谢终于有完整版本了

签到天数: 64 天

[LV.6]常住居民II

0

主题

125

帖子

616

积分

Rank: 4

阅读权限
30
游币
343
精品值
65
热心值
0
分享值
0
在线时间
18 小时
注册时间
2019-8-8
最后登录
2020-2-22
发表于 2020-2-14 20:21:03 | 显示全部楼层
这东西我收了!谢谢楼主!有慢慢游真好!

签到天数: 1 天

[LV.1]初来乍到

0

主题

12

帖子

15

积分

Rank: 2

阅读权限
10
游币
3
精品值
0
热心值
0
分享值
0
在线时间
0 小时
注册时间
2020-2-14
最后登录
2020-2-14
发表于 2020-2-14 20:36:30 | 显示全部楼层
楼主发贴辛苦了,谢谢楼主的精彩分享!我觉得慢慢游是注册对了!

签到天数: 141 天

[LV.7]常住居民III

0

主题

676

帖子

1854

积分

Rank: 8Rank: 8

阅读权限
50
游币
996
精品值
0
热心值
0
分享值
0
在线时间
182 小时
注册时间
2019-5-11
最后登录
2020-2-23
发表于 2020-2-14 20:40:50 | 显示全部楼层
楼主发贴辛苦了,谢谢楼主的精彩分享!

签到天数: 265 天

[LV.8]以坛为家I

0

主题

2946

帖子

4403

积分

Rank: 16Rank: 16Rank: 16Rank: 16

阅读权限
70
游币
1091
精品值
0
热心值
0
分享值
0
在线时间
366 小时
注册时间
2019-5-15
最后登录
2020-2-23
发表于 2020-2-14 20:43:26 | 显示全部楼层
楼主发贴辛苦了,谢谢楼主的精彩分享!

签到天数: 15 天

[LV.4]偶尔看看III

0

主题

16

帖子

52

积分

Rank: 2

阅读权限
10
游币
30
精品值
0
热心值
0
分享值
0
在线时间
6 小时
注册时间
2014-9-20
最后登录
2020-2-23
发表于 2020-2-14 20:59:14 | 显示全部楼层
楼主发贴辛苦了,谢谢楼主的精彩分享!我觉得慢慢游是注册对了!

签到天数: 1349 天

[LV.10]以坛为家III

25

主题

2434

帖子

7870

积分

Rank: 16Rank: 16Rank: 16Rank: 16

阅读权限
70
游币
4773
精品值
0
热心值
0
分享值
16
在线时间
631 小时
注册时间
2014-9-22
最后登录
2020-2-22
发表于 2020-2-14 21:03:05 | 显示全部楼层
楼主太厉害了!这个资源都能找到,辛苦了!我觉得慢慢游真是个好地方!
回帖须知
本站严禁灌水回复以及讽刺辱骂分享者的行为,轻者扣分警告,重者直接永久封禁。发帖前请详读:点击进入 。以免永久封禁。
 懒得打字?点击快捷回复➔➔ 
您需要登录后才可以回帖 登录 | 我要注册

本版积分规则

小黑屋|手机版|慢慢游社区 ( 站务处理service@mmyfilm.com )

GMT+8, 2020-2-23 08:38 , Processed in 0.154827 second(s), 37 queries .

Powered by Discuz! X3.4

© 2001-2013 Comsenz Inc.

快速回复 返回顶部 返回列表