慢慢游社区

 找回密码
 我要注册
搜索
查看: 293|回复: 26

[喜剧] [百度云][香港][1994][九品芝麻官(109分钟完整版)][周星驰/吴孟达/张敏 ][国国粤台四语.内封简繁中字][MKV/5.06GB][BDRip.1080p.HKFACT]

[复制链接]

签到天数: 1597 天

[LV.Master]伴坛终老

35

主题

2224

帖子

3万

积分

Rank: 32Rank: 32Rank: 32Rank: 32Rank: 32Rank: 32Rank: 32Rank: 32

阅读权限
90
游币
30754
精品值
23
热心值
0
分享值
15
在线时间
948 小时
注册时间
2014-9-15
最后登录
2020-2-27
发表于 2020-2-8 14:03:35 | 显示全部楼层 |阅读模式
慢慢游社区mmy.la_f2deb48f8c5494eed6e05bee20f5e0fe98257e02.jpg
潇湘子HKFACT版109分钟完整版  国语(你老母版)、国语(你个头版)、粤语、台语

◎译  名 白面包青天
◎片  名 九品芝麻官
◎年  代 1994
◎产  地 香港
◎类  别 喜剧
◎语  言 国语/粤语
◎上映日期 1994-03-31
◎导  演 王晶 Jing Wong
◎主  演 周星驰 Stephen Chow
      吴孟达 Man Tat Ng
      张敏 Sharla Cheung
      徐锦江 Elvis Tsui
      钟丽缇 Christy Chung
      蔡少芬 Ada Choi
◎简  介

  包龙星(周星驰 饰)用钱买来了一个候补知县的职位,可是为人贪婪,县上的人都对他痛恨之极。在他代替正式知县的时候,戚家媳妇戚秦氏(张敏 饰)遭到了常威( 邹兆龙 饰 )的强暴,后来常威动了杀机把戚家上下都杀害了,更嫁祸于戚秦氏。常威是水师提督大人的儿子,请来大状方唐镜(吴启华 饰),收买了所有证人以便洗脱罪名。包龙星虽然极力寻找证据,也被迫害至落难他乡。他决定要上京告御状,后来他因没钱不得不在妓院打工,向老板娘学习了一身斗嘴的好功夫。他在妓院里误打误撞认识了皇上,帮助皇上有功他被封了大官,重审戚家被害的案件。他凭着聪慧与口才,全力为戚秦氏讨回公道。
General
Unique ID                      : 169559059458492147119484884885785858168 (0x7F8FE3122026C677418A4568EF94D078)
Complete name                  : H:\WEB-DL1080P版\九品芝麻官HKFACT(109分钟完整版).mkv
Format                         : Matroska
Format version                 : Version 4
File size                      : 5.06 GiB
Duration                       : 1 h 49 min
Overall bit rate               : 6 671 kb/s
Encoded date                   : UTC 2018-10-11 22:54:42
Writing application            : mkvmerge v27.0.0 ('Metropolis') 32-bit
Writing library                : libebml v1.3.6 + libmatroska v1.4.9

Video
ID                             : 1
Format                         : AVC
Format/Info                    : Advanced Video Codec
Format profile                 : High@L4.1
Format settings                : CABAC / 4 Ref Frames
Format settings, CABAC         : Yes
Format settings, Reference fra : 4 frames
Codec ID                       : V_MPEG4/ISO/AVC
Duration                       : 1 h 49 min
Bit rate                       : 5 000 kb/s
Width                          : 1 920 pixels
Height                         : 1 080 pixels
Display aspect ratio           : 16:9
Frame rate mode                : Constant
Frame rate                     : 24.000 FPS
Color space                    : YUV
Chroma subsampling             : 4:2:0
Bit depth                      : 8 bits
Scan type                      : Progressive
Bits/(Pixel*Frame)             : 0.100
Stream size                    : 3.80 GiB (75%)
Writing library                : x264 core 157 r2935 545de2f
Language                       : Chinese
Default                        : Yes
Forced                         : No

Audio #1
ID                             : 2
Format                         : AC-3
Format/Info                    : Audio Coding 3
Commercial name                : Dolby Digital
Codec ID                       : A_AC3
Duration                       : 1 h 49 min
Bit rate mode                  : Constant
Bit rate                       : 640 kb/s
Channel(s)                     : 6 channels
Channel layout                 : L R C LFE Ls Rs
Sampling rate                  : 48.0 kHz
Frame rate                     : 31.250 FPS (1536 SPF)
Bit depth                      : 16 bits
Compression mode               : Lossy
Stream size                    : 498 MiB (10%)
Title                          : 國語(你老母版)
Language                       : Chinese
Service kind                   : Complete Main
Default                        : Yes
Forced                         : No

Audio #2
ID                             : 3
Format                         : AC-3
Format/Info                    : Audio Coding 3
Commercial name                : Dolby Digital
Codec ID                       : A_AC3
Duration                       : 1 h 49 min
Bit rate mode                  : Constant
Bit rate                       : 192 kb/s
Channel(s)                     : 2 channels
Channel layout                 : L R
Sampling rate                  : 48.0 kHz
Frame rate                     : 31.250 FPS (1536 SPF)
Bit depth                      : 16 bits
Compression mode               : Lossy
Stream size                    : 149 MiB (3%)
Title                          : 國語(你個頭版)
Language                       : Chinese
Service kind                   : Complete Main
Default                        : No
Forced                         : No

Audio #3
ID                             : 4
Format                         : AC-3
Format/Info                    : Audio Coding 3
Commercial name                : Dolby Digital
Codec ID                       : A_AC3
Duration                       : 1 h 49 min
Bit rate mode                  : Constant
Bit rate                       : 640 kb/s
Channel(s)                     : 6 channels
Channel layout                 : L R C LFE Ls Rs
Sampling rate                  : 48.0 kHz
Frame rate                     : 31.250 FPS (1536 SPF)
Bit depth                      : 16 bits
Compression mode               : Lossy
Stream size                    : 498 MiB (10%)
Title                          : 粵語
Language                       : Chinese
Service kind                   : Complete Main
Default                        : No
Forced                         : No

Audio #4
ID                             : 5
Format                         : AC-3
Format/Info                    : Audio Coding 3
Commercial name                : Dolby Digital
Codec ID                       : A_AC3
Duration                       : 1 h 49 min
Bit rate mode                  : Constant
Bit rate                       : 192 kb/s
Channel(s)                     : 2 channels
Channel layout                 : L R
Sampling rate                  : 48.0 kHz
Frame rate                     : 31.250 FPS (1536 SPF)
Bit depth                      : 16 bits
Compression mode               : Lossy
Stream size                    : 149 MiB (3%)
Title                          : 台語
Language                       : Chinese
Service kind                   : Complete Main
Default                        : No
Forced                         : No

Text #1
ID                             : 6
Format                         : UTF-8
Codec ID                       : S_TEXT/UTF8
Codec ID/Info                  : UTF-8 Plain Text
Duration                       : 1 h 49 min
Bit rate                       : 71 b/s
Count of elements              : 2033
Stream size                    : 56.2 KiB (0%)
Title                          : 繁體中文
Language                       : Chinese
Default                        : Yes
Forced                         : No

Text #2
ID                             : 7
Format                         : UTF-8
Codec ID                       : S_TEXT/UTF8
Codec ID/Info                  : UTF-8 Plain Text
Duration                       : 1 h 49 min
Bit rate                       : 71 b/s
Count of elements              : 2033
Stream size                    : 56.2 KiB (0%)
Title                          : 簡體中文
Language                       : Chinese
Default                        : No
Forced                         : No
慢慢游社区mmy.la_1581141205(1).png 慢慢游社区mmy.la_1581141190.png

链接: >>点击进入百度云下载<<(←购买前请先验证分享链接是否有效)

此处内容付费可见

向楼主支付【游币】或【升级VIP】才能显示 已有 18 人购买 

支付 30 游币 升级VIP
楼主精华帖
回复

使用道具 举报

签到天数: 255 天

[LV.8]以坛为家I

0

主题

855

帖子

1321

积分

Rank: 8Rank: 8

阅读权限
50
游币
253
精品值
0
热心值
0
分享值
0
在线时间
213 小时
注册时间
2015-7-28
最后登录
2020-2-24
发表于 2020-2-8 14:54:33 | 显示全部楼层
周星驰的电影支持下。
回复 支持 反对

使用道具 举报

签到天数: 210 天

[LV.7]常住居民III

0

主题

290

帖子

721

积分

Rank: 4

阅读权限
30
游币
342
精品值
0
热心值
0
分享值
0
在线时间
89 小时
注册时间
2019-7-7
最后登录
2020-2-27
发表于 2020-2-8 17:05:21 | 显示全部楼层
楼主发贴辛苦了,谢谢楼主的精彩分享!我觉得慢慢游是注册对了!
回复 支持 反对

使用道具 举报

签到天数: 206 天

[LV.7]常住居民III

0

主题

579

帖子

3万

积分

Rank: 64Rank: 64Rank: 64Rank: 64Rank: 64Rank: 64Rank: 64Rank: 64Rank: 64Rank: 64Rank: 64Rank: 64Rank: 64Rank: 64Rank: 64Rank: 64

阅读权限
150
游币
31471
精品值
311
热心值
0
分享值
0
在线时间
74 小时
注册时间
2019-7-3
最后登录
2020-2-20
发表于 2020-2-9 10:22:17 | 显示全部楼层
没有百度页面啊。
回复 支持 反对

使用道具 举报

签到天数: 1597 天

[LV.Master]伴坛终老

35

主题

2224

帖子

3万

积分

Rank: 32Rank: 32Rank: 32Rank: 32Rank: 32Rank: 32Rank: 32Rank: 32

阅读权限
90
游币
30754
精品值
23
热心值
0
分享值
15
在线时间
948 小时
注册时间
2014-9-15
最后登录
2020-2-27
 楼主| 发表于 2020-2-9 10:34:10 | 显示全部楼层
13881578830 发表于 2020-2-9 10:22
没有百度页面啊。

我看了,。直接点击就出不来。但把链接复制在IE上就可以。我也修改了一下。还是不行。不知道为什么
回复 支持 反对

使用道具 举报

签到天数: 1597 天

[LV.Master]伴坛终老

35

主题

2224

帖子

3万

积分

Rank: 32Rank: 32Rank: 32Rank: 32Rank: 32Rank: 32Rank: 32Rank: 32

阅读权限
90
游币
30754
精品值
23
热心值
0
分享值
15
在线时间
948 小时
注册时间
2014-9-15
最后登录
2020-2-27
 楼主| 发表于 2020-2-9 10:38:29 | 显示全部楼层
13881578830 发表于 2020-2-9 10:22
没有百度页面啊。

现在好了                     
回复 支持 反对

使用道具 举报

签到天数: 208 天

[LV.7]常住居民III

85

主题

1011

帖子

3万

积分

Rank: 32Rank: 32Rank: 32Rank: 32Rank: 32Rank: 32Rank: 32Rank: 32

阅读权限
90
游币
33842
精品值
0
热心值
0
分享值
20
在线时间
270 小时
注册时间
2018-3-13
最后登录
2020-2-27

最佳新人活跃会员

发表于 2020-2-9 11:51:35 | 显示全部楼层
楼主发贴辛苦了,谢谢楼主的精彩分享!我觉得慢慢游是注册对了!
回复 支持 反对

使用道具 举报

签到天数: 139 天

[LV.7]常住居民III

40

主题

327

帖子

2万

积分

Rank: 32Rank: 32Rank: 32Rank: 32Rank: 32Rank: 32Rank: 32Rank: 32

阅读权限
90
游币
24648
精品值
0
热心值
0
分享值
66
在线时间
296 小时
注册时间
2019-9-23
最后登录
2020-2-28
发表于 2020-2-9 12:31:20 | 显示全部楼层
感谢分享稀缺资源
回复 支持 反对

使用道具 举报

该用户从未签到

0

主题

39

帖子

5827

积分

Rank: 16Rank: 16Rank: 16Rank: 16

阅读权限
70
游币
5486
精品值
52
热心值
0
分享值
0
在线时间
198 小时
注册时间
2018-7-14
最后登录
2020-2-27
发表于 2020-2-9 21:56:58 | 显示全部楼层
非常感谢了,太好了
回复 支持 反对

使用道具 举报

签到天数: 12 天

[LV.3]偶尔看看II

0

主题

206

帖子

344

积分

Rank: 4

阅读权限
30
游币
72
精品值
0
热心值
0
分享值
0
在线时间
66 小时
注册时间
2017-11-4
最后登录
2020-2-25
发表于 2020-2-10 08:18:23 | 显示全部楼层
楼主太给力了!
回复 支持 反对

使用道具 举报

回帖须知
本站严禁灌水回复以及讽刺辱骂分享者的行为,轻者扣分警告,重者直接永久封禁。发帖前请详读:点击进入 。以免永久封禁。
 懒得打字?点击快捷回复➔➔ 
您需要登录后才可以回帖 登录 | 我要注册

本版积分规则

小黑屋|手机版|慢慢游社区 ( 站务处理service@mmyfilm.com )

GMT+8, 2020-2-28 03:26 , Processed in 0.122965 second(s), 37 queries .

Powered by Discuz! X3.4

© 2001-2013 Comsenz Inc.

快速回复 返回顶部 返回列表