慢慢游社区

 找回密码
 我要注册
搜索
查看: 736|回复: 61

[喜剧] [百度云][香港][玉蒲团之偷情宝鉴][119分钟完整版][国粤双语/内封中字][5.59G/MKV][BDRip.720p.HKFACT]

  [复制链接]

签到天数: 1597 天

[LV.Master]伴坛终老

35

主题

2224

帖子

3万

积分

Rank: 32Rank: 32Rank: 32Rank: 32Rank: 32Rank: 32Rank: 32Rank: 32

阅读权限
90
游币
30754
精品值
23
热心值
0
分享值
15
在线时间
948 小时
注册时间
2014-9-15
最后登录
2020-2-27
发表于 2020-2-8 13:39:30 | 显示全部楼层 |阅读模式
慢慢游社区mmy.la_110027z6sie8pse6bqeq0p.jpg
本资源仅限交流未经楼主同意严禁转载或盈利,尤其禁止转载至盘乐网

潇湘子HKFACT版119分钟完整版  以蓝光为基础增加台版片段
◎译  名 玉蒲团之偷情宝鉴/SexandZen
◎片  名 玉蒲團之偷情寶鑑
◎年  代 1991
◎产  地 香港
◎类  别 三级/情色
◎语  言 粤语
◎上映日期 1991-11-30
◎片  长 94分钟
◎导  演 麦当杰 Michael Mak
◎主  演 吴启华 Lawrence Ng
       郑则仕 Kent Cheng
       徐锦江 Elvis Tsui
       叶子楣 Amy Yip
       周弘 Isabella Chow
       村上丽奈 Rena Murakami
◎简  介
  未央生(吴启华 饰)自认为风流倜傥一表人才,在他看来,凭借着自己的才识与外貌,通天下美女享尽鱼水之欢简直不是梦想。然而,一位老僧却告诉未央生,根据应果报应的定律,他如今所作的荒诞淫乱的一切,最后终将报应到他和他的家人身上。尽管并不相信老僧所言,但未央生的内心里还是有一丝隐隐的不安,于是,他娶了大户人家的女儿(叶子楣 饰)为妻,希望贤良淑德的她能够守好死自己的本分。婚后,眼看着一切都风平浪静的未央生放下心来,开始了自己花天酒地的荒淫生活,甚至让屠户(郑则仕 饰)帮助自己改造下体,以获得更大的快感。而之后发生的一切,令未央生想起一句老话——不是不报,时候未到。


慢慢游社区mmy.la_1581134889(1).png 慢慢游社区mmy.la_1581134917(1).png 慢慢游社区mmy.la_1581134944(1).png
General
Unique ID                      : 236128530102261021749284642813429848828 (0xB1A4B36014624E789757CB3F8E0E9AFC)
Complete name                  : F:\电影\电影DVD\已看\玉蒲团之偷情宝鉴(119分鐘完整版).mkv
Format                         : Matroska
Format version                 : Version 1
File size                      : 5.59 GiB
Duration                       : 1 h 59 min
Overall bit rate               : 6 707 kb/s
Encoded date                   : UTC 2013-05-21 04:24:52
Writing application            : mkvmerge v2.2.0 ('Turn It On Again') built on Mar  4 2008 12:58:26
Writing library                : libebml v0.7.7 + libmatroska v0.8.1


Video
ID                             : 1
Format                         : AVC
Format/Info                    : Advanced Video Codec
Format profile                 : High@L4.1
Format settings                : CABAC / 3 Ref Frames
Format settings, CABAC         : Yes
Format settings, Reference fra : 3 frames
Codec ID                       : V_MPEG4/ISO/AVC
Duration                       : 1 h 59 min
Bit rate                       : 5 000 kb/s
Width                          : 1 280 pixels
Height                         : 690 pixels
Display aspect ratio           : 1.85:1
Frame rate mode                : Constant
Frame rate                     : 23.976 (24000/1001) FPS
Color space                    : YUV
Chroma subsampling             : 4:2:0
Bit depth                      : 8 bits
Scan type                      : Progressive
Bits/(Pixel*Frame)             : 0.236
Stream size                    : 4.06 GiB (73%)
Writing library                : x264 core 120 r2164 da19765
Language                       : English
Default                        : Yes
Forced                         : No


Audio #1
ID                             : 2
Format                         : AC-3
Format/Info                    : Audio Coding 3
Commercial name                : Dolby Digital
Codec ID                       : A_AC3
Duration                       : 1 h 59 min
Bit rate mode                  : Constant
Bit rate                       : 192 kb/s
Channel(s)                     : 2 channels
Channel layout                 : L R
Sampling rate                  : 48.0 kHz
Frame rate                     : 31.250 FPS (1536 SPF)
Bit depth                      : 16 bits
Compression mode               : Lossy
Stream size                    : 164 MiB (3%)
Service kind                   : Complete Main
Default                        : Yes
Forced                         : No


Audio #2
ID                             : 3
Format                         : DTS
Format/Info                    : Digital Theater Systems
Codec ID                       : A_DTS
Duration                       : 1 h 59 min
Bit rate mode                  : Constant
Bit rate                       : 1 510 kb/s
Channel(s)                     : 6 channels
Channel layout                 : C L R Ls Rs LFE
Sampling rate                  : 48.0 kHz
Frame rate                     : 93.750 FPS (512 SPF)
Bit depth                      : 24 bits
Compression mode               : Lossy
Stream size                    : 1.26 GiB (23%)
Title                          : 粵語
Language                       : Chinese
Default                        : No
Forced                         : No


Text
ID                             : 4
Format                         : UTF-8
Codec ID                       : S_TEXT/UTF8
Codec ID/Info                  : UTF-8 Plain Text
Default                        : Yes
Forced                         : No


链接:>>点击进入百度云下载<<(←购买前请先验证分享链接是否有效)

此处内容付费可见

向楼主支付【游币】或【升级VIP】才能显示 已有 46 人购买 

支付 80 游币 升级VIP
楼主精华帖
回复

使用道具 举报

签到天数: 466 天

[LV.9]以坛为家II

0

主题

628

帖子

1908

积分

Rank: 8Rank: 8

阅读权限
50
游币
992
精品值
0
热心值
0
分享值
0
在线时间
288 小时
注册时间
2018-10-1
最后登录
2020-2-28

活跃会员

发表于 2020-2-8 13:51:31 | 显示全部楼层
楼主发贴辛苦了,谢谢楼主的精彩分享!我觉得慢慢游是注册对了!
回复 支持 反对

使用道具 举报

签到天数: 440 天

[LV.9]以坛为家II

0

主题

465

帖子

2153

积分

Rank: 8Rank: 8

阅读权限
50
游币
1596
精品值
0
热心值
0
分享值
0
在线时间
92 小时
注册时间
2018-10-20
最后登录
2020-2-27
发表于 2020-2-8 14:17:07 | 显示全部楼层
谢谢发布!楼主辛苦了!
回复 支持 反对

使用道具 举报

签到天数: 1097 天

[LV.10]以坛为家III

0

主题

1678

帖子

3151

积分

Rank: 8Rank: 8

阅读权限
50
游币
1089
精品值
0
热心值
0
分享值
0
在线时间
384 小时
注册时间
2016-4-2
最后登录
2020-2-28
发表于 2020-2-8 14:18:43 | 显示全部楼层
非常感谢提供资源
回复 支持 反对

使用道具 举报

签到天数: 462 天

[LV.9]以坛为家II

130

主题

1186

帖子

1万

积分

Rank: 32Rank: 32Rank: 32Rank: 32Rank: 32Rank: 32Rank: 32Rank: 32

阅读权限
90
游币
12363
精品值
10
热心值
0
分享值
334
在线时间
621 小时
注册时间
2018-7-31
最后登录
2020-2-27

最佳新人活跃会员

发表于 2020-2-8 14:28:40 | 显示全部楼层
难得的完整版,楼主真厉害
回复 支持 反对

使用道具 举报

签到天数: 157 天

[LV.7]常住居民III

0

主题

2084

帖子

3506

积分

Rank: 8Rank: 8

阅读权限
50
游币
827
精品值
0
热心值
0
分享值
0
在线时间
595 小时
注册时间
2014-9-21
最后登录
2020-2-27
发表于 2020-2-8 14:31:43 | 显示全部楼层
这个我要了多谢你
回复 支持 反对

使用道具 举报

该用户从未签到

0

主题

366

帖子

758

积分

Rank: 4

阅读权限
30
游币
362
精品值
0
热心值
0
分享值
0
在线时间
30 小时
注册时间
2019-4-2
最后登录
2020-2-27
发表于 2020-2-8 14:36:30 | 显示全部楼层
谢谢楼主的精彩分享!
回复 支持 反对

使用道具 举报

签到天数: 273 天

[LV.8]以坛为家I

0

主题

319

帖子

846

积分

Rank: 4

阅读权限
30
游币
459
精品值
0
热心值
0
分享值
0
在线时间
68 小时
注册时间
2019-5-8
最后登录
2020-2-27
发表于 2020-2-8 14:39:58 | 显示全部楼层
楼主发贴辛苦了,谢谢楼主的精彩分享!我觉得慢慢游是注册对了!
回复 支持 反对

使用道具 举报

签到天数: 1 天

[LV.1]初来乍到

1

主题

27

帖子

442

积分

Rank: 4

阅读权限
30
游币
391
精品值
5
热心值
0
分享值
0
在线时间
15 小时
注册时间
2020-1-28
最后登录
2020-2-26
发表于 2020-2-8 14:40:37 | 显示全部楼层
谢谢分享,下来看看。
回复 支持 反对

使用道具 举报

签到天数: 273 天

[LV.8]以坛为家I

0

主题

319

帖子

846

积分

Rank: 4

阅读权限
30
游币
459
精品值
0
热心值
0
分享值
0
在线时间
68 小时
注册时间
2019-5-8
最后登录
2020-2-27
发表于 2020-2-8 14:43:06 | 显示全部楼层
希望没人解压过啊,不然可能就失效了。。
回复 支持 反对

使用道具 举报

回帖须知
本站严禁灌水回复以及讽刺辱骂分享者的行为,轻者扣分警告,重者直接永久封禁。发帖前请详读:点击进入 。以免永久封禁。
 懒得打字?点击快捷回复➔➔ 
您需要登录后才可以回帖 登录 | 我要注册

本版积分规则

小黑屋|手机版|慢慢游社区 ( 站务处理service@mmyfilm.com )

GMT+8, 2020-2-28 03:51 , Processed in 0.121625 second(s), 36 queries .

Powered by Discuz! X3.4

© 2001-2013 Comsenz Inc.

快速回复 返回顶部 返回列表