慢慢游社区

 找回密码
 我要注册
搜索
查看: 2697|回复: 305

[爱情] [百度云]阳光灿烂的日子(高清修复140分钟完整版).1994.WEB-DL.1080P.x264.国语中字 4.28G

  [复制链接]

签到天数: 170 天

[LV.7]常住居民III

15

主题

480

帖子

7307

积分

Rank: 16Rank: 16Rank: 16Rank: 16

阅读权限
70
游币
6539
精品值
47
热心值
0
分享值
14
在线时间
166 小时
注册时间
2018-1-9
最后登录
2020-2-24
发表于 2020-1-30 15:39:35 | 显示全部楼层 |阅读模式
本帖最后由 myparkh 于 2020-2-18 19:36 编辑
慢慢游社区mmy.la_00.jpg
导演: 姜文
编剧: 姜文 / 王朔
主演: 夏雨 / 宁静 / 陶虹 / 耿乐 / 斯琴高娃 / [url=]更多...[/url]
类型: 剧情 / 爱情
制片国家/地区: 中国大陆 / 中国香港
语言: 汉语普通话
上映日期: 1995-06-28(中国香港) / 1995-08-21(中国大陆) / 1994-09-09(威尼斯电影节)
片长: 134分钟(中国大陆) / 138分钟(威尼斯电影节) / 128分钟(DVD版) / 140分钟(修复版) / 225分钟(初剪版)
又名: In the Heat of the Sun
IMDb链接: tt0111786
慢慢游社区mmy.la_阳光灿烂的日子.1994.WEB-DL.1080P.x264.mp4.jpg
慢慢游社区mmy.la_01.jpg
慢慢游社区mmy.la_02.jpg
慢慢游社区mmy.la_03.jpg
慢慢游社区mmy.la_04.jpg
慢慢游社区mmy.la_05.jpg
慢慢游社区mmy.la_06.jpg
慢慢游社区mmy.la_07.jpg
慢慢游社区mmy.la_08.jpg
慢慢游社区mmy.la_09.jpg
慢慢游社区mmy.la_10.jpg
慢慢游社区mmy.la_11.jpg
慢慢游社区mmy.la_12.jpg
慢慢游社区mmy.la_13.jpg
慢慢游社区mmy.la_14.jpg
慢慢游社区mmy.la_15.jpg

General
Unique ID                      : 8352425401972859484332107933267570985 (0x6489E5DD07360D944537ACD4D70B129)
Complete name                  : L:\阳光灿烂的日子.in.the.Heat.of.the.Sun.1994.WEB-DL.1080P.x264.AC3.国语中字.mkv
Format                         : Matroska
Format version                 : Version 4
File size                      : 4.29 GiB
Duration                       : 2 h 20 min
Overall bit rate               : 4 366 kb/s
Movie name                     : in.the.Heat.of.the.Sun
Encoded date                   : UTC 2020-02-18 11:05:24
Writing application            : mkvmerge v37.0.0 ('Leave It') 64-bit
Writing library                : libebml v1.3.9 + libmatroska v1.5.2
Cover                          : Yes
Attachments                    : cover.jpg / 方正黑体_GBK.TTF

Video
ID                             : 1
Format                         : AVC
Format/Info                    : Advanced Video Codec
Format profile                 : High@L4
Format settings                : CABAC / 4 Ref Frames
Format settings, CABAC         : Yes
Format settings, Reference fra : 4 frames
Codec ID                       : V_MPEG4/ISO/AVC
Duration                       : 2 h 20 min
Bit rate                       : 4 163 kb/s
Width                          : 1 920 pixels
Height                         : 1 080 pixels
Display aspect ratio           : 16:9
Frame rate mode                : Constant
Frame rate                     : 25.000 FPS
Color space                    : YUV
Chroma subsampling             : 4:2:0
Bit depth                      : 8 bits
Scan type                      : Progressive
Bits/(Pixel*Frame)             : 0.080
Stream size                    : 4.09 GiB (95%)
Language                       : Chinese
Default                        : Yes
Forced                         : No
Color range                    : Limited
Matrix coefficients            : BT.709

Audio
ID                             : 2
Format                         : AAC LC
Format/Info                    : Advanced Audio Codec Low Complexity
Codec ID                       : A_AAC-2
Duration                       : 2 h 20 min
Bit rate                       : 192 kb/s
Channel(s)                     : 2 channels
Channel layout                 : L R
Sampling rate                  : 48.0 kHz
Frame rate                     : 46.875 FPS (1024 SPF)
Compression mode               : Lossy
Delay relative to video        : -80 ms
Stream size                    : 191 MiB (4%)
Language                       : Chinese
Default                        : Yes
Forced                         : No

Text
ID                             : 3
Format                         : ASS
Codec ID                       : S_TEXT/ASS
Codec ID/Info                  : Advanced Sub Station Alpha
Duration                       : 2 h 15 min
Bit rate                       : 94 b/s
Count of elements              : 1803
Compression mode               : Lossless
Stream size                    : 94.3 KiB (0%)
Title                          : 中文简体
Language                       : Chinese
Default                        : Yes
Forced                         : No

电影中确实有露点镜头,看最后一张图(已马赛克),需要的同学自行下载电影看,已加软字幕,原来下过的免费再下载一次~

链接: >>点击进入百度云下载<<(←购买前请先验证分享链接是否有效)
游客,需要您回复成为VIP才能查看隐藏内容



评分

参与人数 7游币 +1 分享值 +7 收起 理由
lchh777 + 1
112167 + 1 + 1 如此棒的资源,不赞对不起慢慢游!.
无边无涯蜗牛壳 + 1 慢慢游有你更精彩!
易凯 + 1 资源很给力,我们很高兴!
zhhlmh + 1 慢慢游有你更精彩!
syx525 + 1 如此棒的资源,不赞对不起慢慢游!.
星空凤凰 + 1

查看全部评分

楼主精华帖

签到天数: 278 天

[LV.8]以坛为家I

10

主题

541

帖子

1678

积分

Rank: 8Rank: 8

阅读权限
50
游币
66
精品值
59
热心值
0
分享值
0
在线时间
953 小时
注册时间
2014-3-1
最后登录
2020-2-24
发表于 2020-1-30 15:44:07 | 显示全部楼层
这么清晰的吗啊啊啊

签到天数: 157 天

[LV.7]常住居民III

0

主题

2080

帖子

3618

积分

Rank: 8Rank: 8

阅读权限
50
游币
946
精品值
0
热心值
0
分享值
0
在线时间
592 小时
注册时间
2014-9-21
最后登录
2020-2-24
发表于 2020-1-30 15:44:36 | 显示全部楼层
这个好的节目我要了谢谢你

签到天数: 77 天

[LV.6]常住居民II

0

主题

122

帖子

422

积分

Rank: 4

阅读权限
30
游币
269
精品值
1
热心值
0
分享值
0
在线时间
30 小时
注册时间
2018-7-23
最后登录
2020-2-22
发表于 2020-1-30 15:48:17 | 显示全部楼层
楼主如此诚意的分享如此精彩的内容,必须赞!我想我是一天也不能离开慢慢游。

签到天数: 1551 天

[LV.Master]伴坛终老

37

主题

4312

帖子

1万

积分

Rank: 32Rank: 32Rank: 32Rank: 32Rank: 32Rank: 32Rank: 32Rank: 32

阅读权限
90
游币
5844
精品值
174
热心值
2
分享值
26
在线时间
1355 小时
注册时间
2015-1-31
最后登录
2020-2-24

活跃会员热心会员

发表于 2020-1-30 15:50:17 | 显示全部楼层
非常经典的一部影片,多谢您分享高清修复版。

签到天数: 290 天

[LV.8]以坛为家I

31

主题

597

帖子

2375

积分

Rank: 8Rank: 8

阅读权限
50
游币
1425
精品值
10
热心值
0
分享值
10
在线时间
313 小时
注册时间
2019-3-8
最后登录
2020-2-24
发表于 2020-1-30 15:56:46 | 显示全部楼层
谢谢分享老电影,感谢!

签到天数: 283 天

[LV.8]以坛为家I

1

主题

363

帖子

1430

积分

Rank: 8Rank: 8

阅读权限
50
游币
859
精品值
0
热心值
0
分享值
0
在线时间
208 小时
注册时间
2019-5-2
最后登录
2020-2-24
发表于 2020-1-30 15:57:53 | 显示全部楼层
搬得挺快呀!我刚想去取呢,昨天发的没音轨

签到天数: 49 天

[LV.5]常住居民I

9

主题

498

帖子

938

积分

Rank: 4

阅读权限
30
游币
363
精品值
0
热心值
0
分享值
0
在线时间
77 小时
注册时间
2019-6-23
最后登录
2020-2-24
发表于 2020-1-30 15:59:29 | 显示全部楼层
楼主发贴辛苦了,谢谢楼主的精彩分享!我觉得慢慢游是注册对了!

签到天数: 1280 天

[LV.10]以坛为家III

0

主题

3046

帖子

1万

积分

Rank: 32Rank: 32Rank: 32Rank: 32Rank: 32Rank: 32Rank: 32Rank: 32

阅读权限
90
游币
6066
精品值
133
热心值
0
分享值
0
在线时间
1816 小时
注册时间
2016-2-9
最后登录
2020-2-24

活跃会员

发表于 2020-1-30 16:01:26 | 显示全部楼层
楼主发贴辛苦了,谢谢楼主的精彩分享!

签到天数: 463 天

[LV.9]以坛为家II

0

主题

973

帖子

1471

积分

Rank: 8Rank: 8

阅读权限
50
游币
320
精品值
0
热心值
0
分享值
0
在线时间
179 小时
注册时间
2018-10-7
最后登录
2020-2-24
发表于 2020-1-30 16:02:11 | 显示全部楼层
楼主发贴辛苦了,谢谢楼主的精彩分享!我觉得慢慢游是注册对了!
回帖须知
本站严禁灌水回复以及讽刺辱骂分享者的行为,轻者扣分警告,重者直接永久封禁。发帖前请详读:点击进入 。以免永久封禁。
 懒得打字?点击快捷回复➔➔ 
您需要登录后才可以回帖 登录 | 我要注册

本版积分规则

小黑屋|手机版|慢慢游社区 ( 站务处理service@mmyfilm.com )

GMT+8, 2020-2-24 19:22 , Processed in 0.127933 second(s), 33 queries .

Powered by Discuz! X3.4

© 2001-2013 Comsenz Inc.

快速回复 返回顶部 返回列表