慢慢游社区

 找回密码
 我要注册
查看: 307|回复: 4

[已封装] 【百度云】【午夜狂奔】Midnight Run 1988 BluRay 1080p DTS MA5 1 x265 10bit 国英双语 中英特效 mkv

[复制链接]

签到天数: 627 天

[LV.9]以坛为家II

23

主题

2487

帖子

4811

积分

Rank: 16Rank: 16Rank: 16Rank: 16

阅读权限
70
游币
1041
精品值
391
热心值
0
分享值
2
在线时间
497 小时
注册时间
2014-5-26
最后登录
2019-10-17
发表于 2019-10-9 22:00:04 | 显示全部楼层 |阅读模式
本帖最后由 mypuma 于 2019-10-9 22:56 编辑

慢慢游社区mmy.la_01.jpg
午夜狂奔 MidnightRun (1988)x265 10bit
导演马丁·布莱斯特编剧George Gallo主演:罗伯特·德尼罗 / 查尔斯·格罗丁 / 亚非特·科托类型:喜剧 / 动作 / 惊悚 / 犯罪 / 冒险
制片国家/地区:美国
语言:国语/英语
字幕:中-英简体/中-英特效
上映日期:1988-07-20
片长: 126 分钟
文件大小:9.11G
分辨率:1920x1040
IMDb链接
: tt0095631

Midnight Run 1988 BluRay 1080p DTS MA5 1x265 10bit-2Audio
RELEASE DATE....: 06/30/2019
THEATRE DATE....: 1988
iMDB RATiNG.....: 7.6/10   64,772 votes
GENRE...........: Action, Comedy, Crime,Thriller
SOURCE .........: Midnight Run 1988 SSBlu-ray 1080p AVC DTS-HD MA 5.1-blucook#288@CHDBits
ViDEO BiTRATE...: x265 L5 Main10 @ 8377Kbps
FRAME RATE......: 23.976 fps
AUDiO 1.........: MandarinChineseAC-3 2.0 @ 192Kbps
AUDiO 2.........: English DTS-HDMA5.1 @ 1722Kbps / 1509 Kbps
RUNTiME.........: 02:06:18.582 (h:m:s)
ASPECT RATiO....: 1.85 : 1
RESOLUTiON......: 1920 x 1040
SUBTiTLES.......: Chinese- English
FilE SiZE.......: 9.11 G

文件来源:本视频及国配均收集于网络,中英双字以及中英特效本人封装,不许转制加工和转发

午夜狂奔的剧情简介:
赏金猎人杰克•沃尔什(罗伯特•德尼罗 Robert De Niro 饰)为十万美元决定去纽约搜捕芝加哥黑帮头子吉米•瑟拉诺(丹尼斯•法里纳Dennis Farina 饰)的会计乔纳森•马杜克斯(查尔斯•格罗丁Charles Grodin 饰)。乔纳森贪污了吉米一千五百万美元,并将大部分钱捐给了慈善机构。杰克本打算带乔纳森乘飞机于周五午夜前抵达洛杉矶,但乔纳森患有飞行恐惧症,二人只好转乘火车。于此同时,FBI探员阿朗佐•莫斯利(亚菲特•卡托 Yaphet Kotto 饰)、吉米的黑帮手下及吉米的竞争对手,赏金猎人马文(约翰•阿什顿 John Ashton 饰)都在追踪二人。杰克与乔纳森险况横出爆笑风趣的旅程究竟能否顺利完成?
  本片获:
第46届美国金球奖音乐喜剧类最佳影片
第46届美国金球奖音乐喜剧类最佳男主角(罗伯特•德尼罗)

制作发行:
  
制作公司
    
  
1.环球影业[美国]
2.City Light Films
发行公司
1.哥伦比亚三星[巴西](Brazil) (DVD)
2.CIC Vídeo[巴西](Brazil) (VHS)
3.Esselte Video(1990) (Finland) (VHS)
4.Mainostelevisio (MTV3)[芬兰](1992) (Finland)  (TV)
5.United Pictures Finland(1988) (Finland) (theatrical)


视频属性:
General
Unique                           ID :238167418241721765209319201135615396388 (0xB32D60525F808C169AA4182F2205CA24)
Complete name                  : F:\百度云Baiduyun\午夜狂奔\午夜狂奔.Midnight Run 1988 BluRay 1080p DTS MA5 1 x265 10bit-国英双语.中英特效.mkv
Format                         : Matroska
Format version                 : Version 4
File size                      : 9.11 GiB
Duration                       : 2 h 6 min
Overall bit rate mode          : Variable
Overall bit rate               : 10.3 Mb/s
Encoded date                   : UTC 2019-10-07 07:14:24
Writing application            : mkvmerge v7.9.0 ('Birds') 32bit
Writing library                : libebml v1.3.1 + libmatroskav1.4.2

Video
ID                            : 1
Format                         : HEVC
Format/Info                    : High Efficiency VideoCoding
Format profile                 : Main 10@L5@Main
Codec ID                       : V_MPEGH/ISO/HEVC
Duration                       : 2 h 6 min
Bit rate                       : 8 377 kb/s
Width                          : 1 920 pixels
Height                         : 1 040 pixels
Display aspect ratio           : 1.85:1
Frame rate mode                : Constant
Frame rate                     : 23.976 (23976/1000) FPS
Color space                    : YUV
Chroma subsampling             : 4:2:0
Bit depth                      : 10 bits
Bits/(Pixel*Frame)             : 0.175
Stream size                    : 7.39 GiB (81%)
Writing library                : x2652.8+15-d693a5aa5541:[Windows][MSVC 1914][64 bit] 10bit

Audio #1
ID                             : 2
Format                         : AC-3
Format/Info                    : Audio Coding 3
Commercial name                : Dolby Digital
Codec ID                       : A_AC3
Duration                       : 2 h 6 min
Bit rate mode                  : Constant
Bit rate                       : 192 kb/s
Channel(s)                     : 2 channels
Channel layout                 : L R
Sampling rate                  : 48.0 kHz
Frame rate                     : 31.250 FPS (1536 SPF)
Bit depth                      : 16 bits
Compression mode               : Lossy
Stream size                    : 173 MiB (2%)
Language                       : Mandarin Chinese
Service kind                   : Complete Main
Default                        : Yes
Forced                         : No

Audio #2
ID                             : 3
Format                         : DTS XLL
Format/Info                    : Digital Theater Systems
Commercial name                : DTS-HD Master Audio
Codec ID                       : A_DTS
Duration                       : 2 h 6 min
Bit rate mode                  : Variable
Bit rate                       : 1 722 kb/s
Channel(s)                     : 6 channels
Channel layout                 : C L R Ls Rs LFE
Sampling rate                  : 48.0 kHz
Frame rate                     : 93.750 FPS (512 SPF)
Bit depth                      : 16 bits
Compression mode               : Lossless
Stream size                    : 1.52 GiB (17%)
Language                       : English
Default                       : No
Forced                         : No

Text #1
ID                             : 4
Format                         : UTF-8
Codec ID                       : S_TEXT/UTF8
Codec ID/Info                  : UTF-8 Plain Text
Duration                       : 2 h 1 min
Bit rate                       : 137 b/s
Count of elements              : 1776
Stream size                    : 122 KiB (0%)
Title                          : 中英
Language                       : Chinese
Default                       : Yes
Forced                         : No

Text #2
ID                             : 5
Format                         : PGS
Muxing mode                    : zlib
Codec ID                       : S_HDMV/PGS
Codec ID/Info                  : Picture based subtitleformat used on BDs/HD-DVDs
Duration                       : 2 h 3 min
Bit rate                       : 35.9 kb/s
Count of elements              : 3770
Stream size                    : 31.6 MiB (0%)
Title                          : -英双语/特效
Language                       : Chinese
Default                        : Yes
Forced                         : No


影片截图:
慢慢游社区mmy.la_午夜狂奔.Midnight Run 1988 BluRay 1080p DTS MA5 1 x265 10bit-国英双语.中英特效.j.jpg
慢慢游社区mmy.la_午夜狂奔.Midnight Run 1988 BluRay 1080p DTS MA5 1 x265 10bit-国英双语.中英特效.m.jpg
慢慢游社区mmy.la_午夜狂奔.Midnight Run 1988 BluRay 1080p DTS MA5 1 x265 10bit-国英双语.中英特效.m.jpg
慢慢游社区mmy.la_午夜狂奔.Midnight Run 1988 BluRay 1080p DTS MA5 1 x265 10bit-国英双语.中英特效.m.jpg
慢慢游社区mmy.la_午夜狂奔.Midnight Run 1988 BluRay 1080p DTS MA5 1 x265 10bit-国英双语.中英特效.m.jpg
慢慢游社区mmy.la_午夜狂奔.Midnight Run 1988 BluRay 1080p DTS MA5 1 x265 10bit-国英双语.中英特效.m.jpg
文件下载后,请将文件扩展名PDF改为MKV即可
链接地址:
此处内容付费可见

点击下方支付。

点评

兄台真强,直接放了2个链接  发表于 2019-10-9 22:54
收费帖子请把链接测试放在外面看看有无失效  发表于 2019-10-9 22:38

评分

参与人数 2游币 +50 精品值 +15 分享值 +2 收起 理由
admin + 50 + 15 + 1 慢慢游有你更精彩!
18683073957 + 1 慢慢游有你更精彩!

查看全部评分

楼主精华帖

签到天数: 218 天

[LV.7]常住居民III

2

主题

1204

帖子

5789

积分

Rank: 16Rank: 16Rank: 16Rank: 16

阅读权限
70
游币
4339
精品值
30
热心值
0
分享值
0
在线时间
186 小时
注册时间
2017-9-16
最后登录
2019-10-16
发表于 7 天前 | 显示全部楼层
楼主发贴辛苦了,谢谢楼主的精彩分享!我觉得慢慢游是注册对了!

签到天数: 1215 天

[LV.10]以坛为家III

0

主题

2034

帖子

1万

积分

Rank: 32Rank: 32Rank: 32Rank: 32Rank: 32Rank: 32Rank: 32Rank: 32

阅读权限
90
游币
10077
精品值
172
热心值
0
分享值
0
在线时间
496 小时
注册时间
2015-10-6
最后登录
2019-10-17
发表于 7 天前 | 显示全部楼层
楼主发贴辛苦了,谢谢楼主的精彩分享!我觉得慢慢游是注册对了!
回帖须知
本站严禁灌水回复以及讽刺辱骂分享者的行为,轻者扣分警告,重者直接永久封禁。发帖前请详读:点击进入 。以免永久封禁。
 懒得打字?点击快捷回复➔➔ 
您需要登录后才可以回帖 登录 | 我要注册

本版积分规则

小黑屋|手机版|慢慢游社区 ( 站务处理service@mmyfilm.com )

GMT+8, 2019-10-17 18:44 , Processed in 0.090149 second(s), 33 queries .

Powered by Discuz! X3.4

© 2001-2013 Comsenz Inc.

快速回复 返回顶部 返回列表