慢慢游社区

 找回密码
 我要注册
查看: 2267|回复: 503

【度盘】【免费】12分钟版开国大典彩色影像/中央档案馆/国语中字/WEB-DL/MP4/227MB

  [复制链接]

签到天数: 666 天

[LV.9]以坛为家II

121

主题

931

帖子

10万

积分

Rank: 64Rank: 64Rank: 64Rank: 64Rank: 64Rank: 64Rank: 64Rank: 64Rank: 64Rank: 64Rank: 64Rank: 64Rank: 64Rank: 64Rank: 64Rank: 64

阅读权限
150
游币
86553
精品值
6244
热心值
1
分享值
465
在线时间
914 小时
注册时间
2017-11-9
最后登录
2019-10-16

活跃会员热心会员突出贡献

发表于 2019-9-22 13:15:45 | 显示全部楼层 |阅读模式
慢慢游社区mmy.la_中央档案馆公布开国大典彩色影像.mp4_20190922_123949.518.jpg
本片是以俄罗斯联邦档案部门提供的开国大典彩色影片为基础剪辑制作的开国大典影像档案。
是目前公开的关于开国大典的时间最长、内容最完整的视频,真实还原了这一伟大的历史时刻。

General
Complete name                  : K:\中国历史\中央档案馆公布开国大典彩色影像.mp4
Format                         : MPEG-4
Format profile                 : Base Media
Codec ID                       : isom (isom/iso2/avc1/mp41)
File size                      : 227 MiB
Duration                       : 12 min 5 s
Overall bit rate               : 2 620 kb/s
Writing application            : Lavf57.82.100


Video
ID                             : 1
Format                         : AVC
Format/Info                    : Advanced Video Codec
Format profile                 : High@L3
Format settings                : CABAC / 2 Ref Frames
Format settings, CABAC         : Yes
Format settings, RefFrames     : 2 frames
Format settings, GOP           : M=1, N=12
Codec ID                       : avc1
Codec ID/Info                  : Advanced Video Coding
Duration                       : 12 min 5 s
Bit rate                       : 2 500 kb/s
Width                          : 852 pixels
Height                         : 480 pixels
Display aspect ratio           : 16:9
Frame rate mode                : Constant
Frame rate                     : 25.000 FPS
Color space                    : YUV
Chroma subsampling             : 4:2:0
Bit depth                      : 8 bits
Scan type                      : Progressive
Bits/(Pixel*Frame)             : 0.245
Stream size                    : 218 MiB (96%)
Writing library                : x264 core 148 r2762 90a61ec
Encoding settings              : cabac=1 / ref=2 / deblock=1:0:0 / analyse=0x3:0x113 / me=hex / subme=6 / psy=1 / psy_rd=1.00:0.00 / mixed_ref=1 / me_range=16 / chroma_me=1 / trellis=1 / 8x8dct=1 / cqm=0 / deadzone=21,11 / fast_pskip=1 / chroma_qp_offset=-2 / threads=6 / lookahead_threads=1 / sliced_threads=0 / nr=0 / decimate=1 / interlaced=0 / bluray_compat=0 / constrained_intra=0 / bframes=0 / weightp=1 / keyint=12 / keyint_min=1 / scenecut=40 / intra_refresh=0 / rc_lookahead=12 / rc=abr / mbtree=1 / bitrate=2500 / ratetol=1.0 / qcomp=0.60 / qpmin=0 / qpmax=69 / qpstep=4 / ip_ratio=1.40 / aq=1:1.00


Audio
ID                             : 2
Format                         : AAC
Format/Info                    : Advanced Audio Codec
Format profile                 : LC
Codec ID                       : mp4a-40-2
Duration                       : 12 min 5 s
Bit rate mode                  : Constant
Bit rate                       : 96.0 kb/s
Channel(s)                     : 2 channels
Channel positions              : Front: L R
Sampling rate                  : 48.0 kHz
Frame rate                     : 46.875 FPS (1024 SPF)
Compression mode               : Lossy
Stream size                    : 8.31 MiB (4%)
Default                        : Yes
Alternate group                : 1
慢慢游社区mmy.la_中央档案馆公布开国大典彩色影像.mp4_20190922_124806.577.jpg

慢慢游社区mmy.la_中央档案馆公布开国大典彩色影像.mp4_20190922_125037.493.jpg
慢慢游社区mmy.la_中央档案馆公布开国大典彩色影像.mp4_20190922_125027.290.jpg
慢慢游社区mmy.la_中央档案馆公布开国大典彩色影像.mp4_20190922_125053.827.jpg
慢慢游社区mmy.la_中央档案馆公布开国大典彩色影像.mp4_20190922_124945.217.jpg
慢慢游社区mmy.la_中央档案馆公布开国大典彩色影像.mp4_20190922_125407.133.jpg
慢慢游社区mmy.la_中央档案馆公布开国大典彩色影像.mp4_20190922_124322.851.jpg
慢慢游社区mmy.la_中央档案馆公布开国大典彩色影像.mp4_20190922_124920.385.jpg
慢慢游社区mmy.la_中央档案馆公布开国大典彩色影像.mp4_20190922_124524.213.jpg
慢慢游社区mmy.la_中央档案馆公布开国大典彩色影像.mp4_20190922_124606.799.jpg
慢慢游社区mmy.la_中央档案馆公布开国大典彩色影像.mp4_20190922_124654.114.jpg
慢慢游社区mmy.la_中央档案馆公布开国大典彩色影像.mp4_20190922_124823.022.jpg
游客,需要您回复成为VIP才能查看隐藏内容

评分

参与人数 12游币 +500 分享值 +11 收起 理由
tdczxc + 300 + 1 慢慢游有你更精彩!
超强纠错 + 200 神马都是浮云,资源才是硬道理!.
神喜009 + 1
qwhh0130 + 1
Hamlet0909 + 1 慢慢游有你更精彩!
qinggege0000001 + 1 资源很给力,我们很高兴!
uhjk + 1 资源很给力,我们很高兴!
Gmfdl + 1 资源很给力,我们很高兴!
thj + 1
吹笛子的人 + 1 神马都是浮云,资源才是硬道理!.
Z12345688 + 1 资源很给力,我们很高兴!
hgx8 + 1

查看全部评分

楼主精华帖

签到天数: 1032 天

[LV.10]以坛为家III

5

主题

2013

帖子

5296

积分

Rank: 16Rank: 16Rank: 16Rank: 16

阅读权限
70
游币
2479
精品值
142
热心值
0
分享值
0
在线时间
520 小时
注册时间
2015-12-5
最后登录
2019-10-15
发表于 2019-9-22 13:19:29 | 显示全部楼层
经典的片段,谢谢楼主分享啦

签到天数: 979 天

[LV.10]以坛为家III

18

主题

1711

帖子

6460

积分

Rank: 16Rank: 16Rank: 16Rank: 16

阅读权限
70
游币
4021
精品值
158
热心值
0
分享值
7
在线时间
398 小时
注册时间
2015-2-28
最后登录
2019-10-17

活跃会员

发表于 2019-9-22 13:21:00 | 显示全部楼层
祝福祖国强盛不衰

签到天数: 418 天

[LV.9]以坛为家II

0

主题

584

帖子

1389

积分

Rank: 8Rank: 8

阅读权限
50
游币
686
精品值
0
热心值
0
分享值
0
在线时间
121 小时
注册时间
2018-7-10
最后登录
2019-10-17
发表于 2019-9-22 13:21:34 | 显示全部楼层
这是稀有资源啊!楼主辛苦了,谢谢!

签到天数: 428 天

[LV.9]以坛为家II

0

主题

619

帖子

1505

积分

Rank: 8Rank: 8

阅读权限
50
游币
560
精品值
0
热心值
0
分享值
0
在线时间
326 小时
注册时间
2016-6-23
最后登录
2019-10-15
发表于 2019-9-22 13:21:57 | 显示全部楼层
楼主太厉害了!这个资源都能找到,辛苦了!我觉得慢慢游真是个好地方!

签到天数: 111 天

[LV.6]常住居民II

0

主题

484

帖子

2472

积分

Rank: 8Rank: 8

阅读权限
50
游币
1385
精品值
0
热心值
0
分享值
0
在线时间
603 小时
注册时间
2013-6-10
最后登录
2019-10-16
发表于 2019-9-22 13:22:08 | 显示全部楼层

祝福祖国强盛不衰

该用户从未签到

0

主题

74

帖子

2928

积分

Rank: 8Rank: 8

阅读权限
50
游币
2836
精品值
0
热心值
0
分享值
0
在线时间
18 小时
注册时间
2019-9-6
最后登录
2019-10-17
发表于 2019-9-22 13:22:49 | 显示全部楼层
我爱祖国,要看看!

签到天数: 105 天

[LV.6]常住居民II

1

主题

608

帖子

4204

积分

Rank: 16Rank: 16Rank: 16Rank: 16

阅读权限
70
游币
3183
精品值
0
热心值
0
分享值
0
在线时间
413 小时
注册时间
2017-9-5
最后登录
2019-10-17
发表于 2019-9-22 13:28:16 | 显示全部楼层
谢谢楼主分享

签到天数: 1695 天

[LV.Master]伴坛终老

12

主题

2110

帖子

2万

积分

Rank: 32Rank: 32Rank: 32Rank: 32Rank: 32Rank: 32Rank: 32Rank: 32

阅读权限
90
游币
20869
精品值
120
热心值
0
分享值
0
在线时间
519 小时
注册时间
2014-8-12
最后登录
2019-10-17

活跃会员

发表于 2019-9-22 13:29:19 | 显示全部楼层
这可有历史意义珍贵的视频

签到天数: 6 天

[LV.2]偶尔看看I

1

主题

107

帖子

5163

积分

Rank: 16Rank: 16Rank: 16Rank: 16

阅读权限
70
游币
4739
精品值
95
热心值
0
分享值
0
在线时间
127 小时
注册时间
2018-4-18
最后登录
2019-10-16
发表于 2019-9-22 13:29:30 | 显示全部楼层
楼主发贴辛苦了,谢谢楼主的精彩分享!我觉得慢慢游是注册对了!
回帖须知
本站严禁灌水回复以及讽刺辱骂分享者的行为,轻者扣分警告,重者直接永久封禁。发帖前请详读:点击进入 。以免永久封禁。
 懒得打字?点击快捷回复➔➔ 
您需要登录后才可以回帖 登录 | 我要注册

本版积分规则

小黑屋|手机版|慢慢游社区 ( 站务处理service@mmyfilm.com )

GMT+8, 2019-10-17 19:08 , Processed in 0.064401 second(s), 33 queries .

Powered by Discuz! X3.4

© 2001-2013 Comsenz Inc.

快速回复 返回顶部 返回列表