慢慢游社区

 找回密码
 我要注册
查看: 350|回复: 30

[动作] [百度/BT/磁力][疯狂的麦克斯4:狂暴之路] 4K版 2015 美国 [X265 10bit 2160p 特效字幕][MKV 6.03G ]

[复制链接]

签到天数: 27 天

[LV.4]偶尔看看III

18

主题

113

帖子

9094

积分

Rank: 16Rank: 16Rank: 16Rank: 16

阅读权限
70
游币
8762
精品值
5
热心值
0
分享值
73
在线时间
63 小时
注册时间
2014-9-21
最后登录
2019-9-21
发表于 2019-9-11 14:17:28 | 显示全部楼层 |阅读模式
慢慢游社区mmy.la_p2236181653.jpg
还是国外JOY小组压制的小体积4K版,画质很赞!!特效字幕时间太长忘了出自哪里,感谢原作者!如有不妥,请告知删除!!SUP中英特效字幕及ASS字幕为外挂,之前上传的视频是原版未加工的,不喜欢外挂可以下载后直接封装一下即可!
注:此版本是SDR版,非HDR版,没有支持HDR设备的朋友也可以完美播放!SDR小体积4K版首选JOY小组作品!性价比极高!体积虽小,但画质在4K电视上观看秒杀几十G容量的普通1080P蓝光原盘!

◎译  名 疯狂的麦克斯4:狂暴之路/末日先锋:战甲飞车(港)/疯狂麦斯:愤怒道(台)/冲锋飞车队4/迷雾追魂手4/冲锋追魂手4/疯狂麦克斯4
◎片  名 Mad Max: Fury Road
◎年  代 2015
◎国  家 澳大利亚/美国
◎类  别 动作/科幻/冒险
◎语  言 英语
◎上映日期 2015-05-15(美国)/2015-05-14(澳大利亚)
◎IMDb评分  8.1/10 from 621,805 users
◎IMDb链接  http://www.imdb.com/title/tt1392190/
◎豆瓣评分  8.5/10 from 190,556 users
◎豆瓣链接  https://movie.douban.com/subject/3592854/
◎片  长  120分钟
◎导  演  乔治·米勒 George Miller
◎主  演  汤姆·哈迪 Tom Hardy
      查理兹·塞隆 Charlize Theron
      尼古拉斯·霍尔特 Nicholas Hoult
      休·基斯-拜恩 Hugh Keays-Byrne
      乔什·赫尔曼 Josh Helman
      内森·琼斯 Nathan Jones
      佐伊·克罗维兹 Zoë Kravitz
      罗茜·汉丁顿-惠特莉 Rosie Huntington-Whiteley
      丽莉·克亚芙 Riley Keough
      阿比·丽 Abbey Lee
      考特尼·伊顿 Courtney Eaton
      安格斯·桑普森 Angus Sampson
      理查德·卡特 Richard Carter
      梅根·盖尔 Megan Gale
      肖恩·哈普 Sean Hape

◎简  介

  未来世界,水资源短缺引发了连绵的战争。人们相互厮杀,争夺有限的资源,地球变成了血腥十足的杀戮死战场。面容恐怖的不死乔在戈壁山谷建立了难以撼动的强大武装王国,他手下的战郎驾驶装备尖端武器的战车四下抢掠,杀伐无度,甚至将自己的孩子打造成战争机器。在最近一次行动中,不死乔的得力战将弗瑞奥萨(查理兹·塞隆 Charlize Theron 饰)带着生育者们叛逃,这令不死乔恼羞成怒,发誓要追回生育者。经历了激烈的追逐战和摧毁力极强的沙尘暴,弗瑞奥萨和作为血主的麦克斯(汤姆·哈迪 Tom Hardy 饰)被迫上路,而身后不仅有不死乔的追兵,还有汽油镇、子弹农场的重兵追逐。
  末世战争,全面爆发……

文件信息:
General
Unique ID                      : 20117477122387603576687239916752711156 (0xF227C336A9E1932625434E86063ADF4)
Complete name                  : F:\4K超高清电影\疯狂的麦克斯4狂暴之路 UHD 4K 10bit HEVC TrueHD Atmos 7.1-2160p-Joy.mkv
Format                         : Matroska
Format version                 : Version 4
File size                      : 6.03 GiB
Duration                       : 1 h 53 min
Overall bit rate mode          : Variable
Overall bit rate               : 12.1 Mb/s
Movie name                     : 疯狂的麦克斯4狂暴之路
Encoded date                   : UTC 2018-07-01 13:48:58
Writing application            : mkvmerge v24.0.0 ('Beyond The Pale') 64-bit
Writing library                : libebml v1.3.6 + libmatroska v1.4.9
Cover                          : Yes
Attachments                    : cover.jpg


Video
ID                             : 1
Format                         : HEVC
Format/Info                    : High Efficiency Video Coding
Format profile                 : Main 10@L5@Main
Codec ID                       : V_MPEGH/ISO/HEVC
Duration                       : 1 h 53 min
Bit rate                       : 6 254 kb/s
Width                          : 3 840 pixels
Height                         : 1 600 pixels
Display aspect ratio           : 2.40:1
Frame rate mode                : Constant
Frame rate                     : 23.976 (24000/1001) FPS
Color space                    : YUV
Chroma subsampling             : 4:2:0
Bit depth                      : 10 bits
Bits/(Pixel*Frame)             : 0.042
Stream size                    : 4.95 GiB (52%)
Title                          : 疯狂的麦克斯4狂暴之路.UHDrip.HQ.10bit.HEVC.TrueHD Atmos 7.1-2160p-Joy
Writing library                : x265 1.9+140-34a3d35c5f97:[Windows][GCC 5.3.0][64 bit] 10bit
Encoding settings              : wpp / ctu=64 / min-cu-size=8 / max-tu-size=32 / tu-intra-depth=1 / tu-inter-depth=1 / me=1 / subme=2 / merange=57 / no-rect / no-amp / max-merge=2 / temporal-mvp / no-early-skip / rdpenalty=0 / no-tskip / no-tskip-fast / strong-intra-smoothing / no-lossless / no-cu-lossless / no-constrained-intra / fast-intra / open-gop / no-temporal-layers / interlace=0 / keyint=250 / min-keyint=23 / scenecut=40 / rc-lookahead=15 / lookahead-slices=8 / bframes=4 / bframe-bias=0 / b-adapt=0 / ref=3 / limit-refs=3 / no-limit-modes / weightp / no-weightb / aq-mode=1 / qg-size=32 / aq-strength=1.00 / cbqpoffs=0 / crqpoffs=0 / rd=2 / psy-rd=2.00 / rdoq-level=0 / psy-rdoq=0.00 / no-rd-refine / signhide / deblock=0:0 / sao / no-sao-non-deblock / b-pyramid / cutree / no-intra-refresh / rc=2 / pass / bitrate=6015 / qcomp=0.60 / qpmin=0 / qpmax=51 / qpstep=4 / cplxblur=20.0 / qblur=0.5 / ipratio=1.40 / pbratio=1.30
Language                       : English
Default                        : Yes
Forced                         : No


Audio
ID                             : 2
Format                         : MLP FBA 16-ch
Format/Info                    : Meridian Lossless Packing FBA with 16-channel presentation
Commercial name                : Dolby TrueHD with Dolby Atmos
Codec ID                       : A_TRUEHD
Duration                       : 1 h 53 min
Bit rate mode                  : Variable
Bit rate                       : 5 712 kb/s
Maximum bit rate               : 8 412 kb/s
Channel(s)                     : 8 channels
Channel layout                 : L R C LFE Ls Rs Lb Rb
Sampling rate                  : 48.0 kHz
Frame rate                     : 1 200.000 FPS (40 SPF)
Compression mode               : Lossless
Stream size                    : 4.52 GiB (47%)
Title                          : TrueHD Atmos 7.1
Language                       : English
Default                        : Yes
Forced                         : No
Number of dynamic objects      : 11
Bed channel count              : 1 channel
Bed channel configuration      : LFE
特效字幕截图:
慢慢游社区mmy.la_imgX001.jpg 慢慢游社区mmy.la_imgX002.jpg 慢慢游社区mmy.la_imgX003.jpg
影片截图:
注:截图已压缩,原始画质相当赞!
慢慢游社区mmy.la_imgX001.jpg 慢慢游社区mmy.la_imgX002.jpg
慢慢游社区mmy.la_imgX003.jpg 慢慢游社区mmy.la_imgX004.jpg
慢慢游社区mmy.la_imgX005.jpg 慢慢游社区mmy.la_imgX006.jpg
慢慢游社区mmy.la_imgX007.jpg 慢慢游社区mmy.la_imgX008.jpg
[free]百度网盘:https://pan.baidu.com/s/1hbXy9h56Al5j3eUQPW9azA
种子&磁力:
此处内容付费可见

向楼主支付【游币】或【升级VIP】才能显示 已有 20 人购买 

支付 20 游币 升级VIP
楼主精华帖

签到天数: 1153 天

[LV.10]以坛为家III

186

主题

2017

帖子

10万

积分

Rank: 64Rank: 64Rank: 64Rank: 64Rank: 64Rank: 64Rank: 64Rank: 64Rank: 64Rank: 64Rank: 64Rank: 64Rank: 64Rank: 64Rank: 64Rank: 64

阅读权限
150
游币
94880
精品值
4487
热心值
0
分享值
15
在线时间
1180 小时
注册时间
2014-6-15
最后登录
2019-9-20

活跃会员热心会员突出贡献

发表于 2019-9-11 14:25:07 | 显示全部楼层
有没有国语的?

签到天数: 94 天

[LV.6]常住居民II

0

主题

477

帖子

850

积分

Rank: 4

阅读权限
30
游币
320
精品值
0
热心值
0
分享值
0
在线时间
53 小时
注册时间
2019-3-21
最后登录
2019-9-12
发表于 2019-9-11 14:29:33 | 显示全部楼层
本系列一直没机会看,名气不小!

签到天数: 27 天

[LV.4]偶尔看看III

18

主题

113

帖子

9094

积分

Rank: 16Rank: 16Rank: 16Rank: 16

阅读权限
70
游币
8762
精品值
5
热心值
0
分享值
73
在线时间
63 小时
注册时间
2014-9-21
最后登录
2019-9-21
 楼主| 发表于 2019-9-11 14:30:39 | 显示全部楼层

这片貌似没有国语音轨,都没在国内上映,哪里来的国语音轨

签到天数: 184 天

[LV.7]常住居民III

0

主题

1995

帖子

3636

积分

Rank: 8Rank: 8

阅读权限
50
游币
1547
精品值
0
热心值
0
分享值
0
在线时间
94 小时
注册时间
2019-2-3
最后登录
2019-9-20
发表于 2019-9-11 14:36:43 | 显示全部楼层
论坛不能没有像楼主这样的人才啊!当然我会一直支持慢慢游。

签到天数: 40 天

[LV.5]常住居民I

0

主题

379

帖子

1041

积分

Rank: 8Rank: 8

阅读权限
50
游币
274
精品值
0
热心值
0
分享值
0
在线时间
388 小时
注册时间
2015-9-10
最后登录
2019-9-20
发表于 2019-9-11 15:14:51 | 显示全部楼层
本资源找了很久了,终于在慢慢游找到,感谢您的分享。祝慢慢游越来越好!

签到天数: 308 天

[LV.8]以坛为家I

0

主题

603

帖子

1282

积分

Rank: 8Rank: 8

阅读权限
50
游币
407
精品值
67
热心值
0
分享值
0
在线时间
138 小时
注册时间
2018-9-20
最后登录
2019-9-21

最佳新人

发表于 2019-9-11 15:37:33 | 显示全部楼层
楼主发贴辛苦了,谢谢楼主的精彩分享!我觉得慢慢游是注册对了!

签到天数: 488 天

[LV.9]以坛为家II

113

主题

732

帖子

2万

积分

Rank: 32Rank: 32Rank: 32Rank: 32Rank: 32Rank: 32Rank: 32Rank: 32

阅读权限
90
游币
28618
精品值
10
热心值
0
分享值
66
在线时间
229 小时
注册时间
2016-12-1
最后登录
2019-9-21
发表于 2019-9-11 16:42:53 | 显示全部楼层
看看效果怎么样

签到天数: 965 天

[LV.10]以坛为家III

1

主题

1288

帖子

6590

积分

Rank: 16Rank: 16Rank: 16Rank: 16

阅读权限
70
游币
4875
精品值
0
热心值
0
分享值
0
在线时间
427 小时
注册时间
2017-1-5
最后登录
2019-9-21
发表于 2019-9-11 16:54:15 | 显示全部楼层
好剧,一直传闻拍第五部,没下文了

签到天数: 16 天

[LV.4]偶尔看看III

0

主题

215

帖子

1619

积分

Rank: 8Rank: 8

阅读权限
50
游币
1246
精品值
0
热心值
0
分享值
0
在线时间
158 小时
注册时间
2018-3-27
最后登录
2019-9-20
发表于 2019-9-11 17:10:14 | 显示全部楼层
本资源找了很久了,终于在慢慢游找到,感谢您的分享。祝慢慢游越来越好!
回帖须知
本站严禁灌水回复以及讽刺辱骂分享者的行为,轻者扣分警告,重者直接永久封禁。发帖前请详读:点击进入 。以免永久封禁。
 懒得打字?点击快捷回复➔➔ 
您需要登录后才可以回帖 登录 | 我要注册

本版积分规则

小黑屋|手机版|慢慢游社区 ( 站务处理service@mmyfilm.com )

GMT+8, 2019-9-21 11:16 , Processed in 0.165119 second(s), 37 queries .

Powered by Discuz! X3.4

© 2001-2013 Comsenz Inc.

快速回复 返回顶部 返回列表