慢慢游社区

 找回密码
 我要注册
GOOVIS蓝光播放
查看: 3691|回复: 375

[完美匹配] 小飞象 Dumbo 2019 TW Blu-ray MA 5.1台配国语和公映国配

  [复制链接]

签到天数: 1663 天

[LV.Master]伴坛终老

4

主题

2139

帖子

2万

积分

Rank: 64Rank: 64Rank: 64Rank: 64Rank: 64Rank: 64Rank: 64Rank: 64Rank: 64Rank: 64Rank: 64Rank: 64Rank: 64Rank: 64Rank: 64Rank: 64

阅读权限
150
游币
21091
精品值
158
热心值
0
分享值
14
在线时间
963 小时
注册时间
2014-7-18
最后登录
2019-12-9

热心会员

发表于 2019-6-27 10:28:35 | 显示全部楼层 |阅读模式
本帖最后由 獨自風雨/wx 于 2019-6-28 15:40 编辑



◎译  名 小飞象 / 小飞象真人版
◎片  名 Dumbo
◎年  代 2019
◎产  地 美国
◎类  别 奇幻 / 冒险
◎语  言 英语
◎上映日期 2019-03-29(美国/中国大陆)
◎IMDb评分  6.5/10 from 29,848人评价
◎IMDb链接  http://www.imdb.com/title/tt3861390
◎豆瓣评分 6.8/10 from 29,621人评价
◎豆瓣链接 https://movie.douban.com/subject/25924056
◎片  长 112分钟
◎导  演 蒂姆·波顿
◎主  演 伊娃·格林 / 科林·法瑞尔 / 迈克尔·基顿 / 妮可·帕克 / 芬利·霍宾斯 / 丹尼·德维托 / 艾伦·阿金 / 卡米尔·雷米泽斯基 / 约瑟夫·盖特 / 桑迪·马丁 / 乔·奥斯蒙德 / 莎朗·鲁妮 / 拉斯·艾丁格 / 罗珊·塞斯 / 道比·欧帕瑞 / 迈克尔·巴佛 / 杰茜·维宁 / 伯纳多·桑托斯 / 贝恩·科拉科 / 文森特·阿德里安 / 菲利普·罗施 / 露西·德维托 / 拉普洛斯·卡伦福佐斯 / 阿梅吉特·德尤 / 史蒂芬·萨姆森 / 埃里克·海登

◎简  介

  迪士尼全新真人版《小飞象》改编自1941年推出的迪士尼同名经典动画,讲述了生来因一双大耳朵而遭人嘲笑的小飞象,在众人的帮助下逐渐拥抱自己的与众不同,成就一段逆风翱翔的暖心传奇。
  一位前马戏团明星,刚从战争前线归来,霍特·法瑞尔(科林·法瑞尔饰)在一家艰难经营的马戏团谋得一份工作,负责照顾刚出生的小象,带着两个善良的孩子,女儿米莉·法瑞尔(尼科·帕克饰)和儿子乔·法瑞尔(芬利·霍宾斯饰),两个孩子和另外一个女孩玛茜特(蔡慧泉饰)与小飞象成为朋友, 帮助小飞象找到妈妈。
  当人们发现小象会飞后,马戏团重复生机,更吸引到一个充满心机的生意人文德维尔(迈克尔·基顿饰)的注意,他把小飞象雇佣到他的大型游乐场Dreamland,与杂技演员柯莱特·马钱特(伊娃·格林饰)做搭档,人气达到新高度,然而霍特·法瑞尔发现,游乐场光鲜亮丽的背后,充满种种见不得人的秘密。

游客,需要您回复成为VIP才能查看隐藏内容




点评

第二个640k说是5.1的也是左右声道  发表于 2019-7-9 15:24
请确定Dolby Digital 5.1 44.1kHz 320kbps AC3是台版蓝光的音轨?  发表于 2019-6-27 11:00

评分

参与人数 2游币 +30 分享值 +2 收起 理由
Trigger + 1 资源很给力,我们很高兴!
qingchun + 30 + 1 慢慢游有你更精彩!

查看全部评分

楼主精华帖

签到天数: 171 天

[LV.7]常住居民III

0

主题

301

帖子

1069

积分

Rank: 8Rank: 8

阅读权限
50
游币
606
精品值
0
热心值
0
分享值
0
在线时间
162 小时
注册时间
2019-6-10
最后登录
2019-12-9
发表于 2019-6-27 10:37:30 | 显示全部楼层
这东西我收了!谢谢楼主!有慢慢游真好!

签到天数: 446 天

[LV.9]以坛为家II

4

主题

613

帖子

3528

积分

Rank: 8Rank: 8

阅读权限
50
游币
2736
精品值
0
热心值
0
分享值
0
在线时间
179 小时
注册时间
2014-12-19
最后登录
2019-12-9

活跃会员

发表于 2019-6-27 10:52:46 | 显示全部楼层
感谢楼主提取分享

签到天数: 465 天

[LV.9]以坛为家II

0

主题

7120

帖子

1万

积分

Rank: 32Rank: 32Rank: 32Rank: 32Rank: 32Rank: 32Rank: 32Rank: 32

阅读权限
90
游币
2727
精品值
0
热心值
0
分享值
1
在线时间
471 小时
注册时间
2018-7-5
最后登录
2019-12-9
发表于 2019-6-27 10:52:47 | 显示全部楼层
这东西我收了!谢谢楼主!有慢慢游真好!

签到天数: 1 天

[LV.1]初来乍到

0

主题

5

帖子

13

积分

Rank: 2

阅读权限
10
游币
4
精品值
0
热心值
0
分享值
0
在线时间
4 小时
注册时间
2018-11-18
最后登录
2019-8-14
发表于 2019-6-27 11:05:15 | 显示全部楼层
楼主发贴辛苦了,谢谢楼主的精彩分享!我觉得慢慢游是注册对了!

签到天数: 1681 天

[LV.Master]伴坛终老

1

主题

2850

帖子

4486

积分

Rank: 16Rank: 16Rank: 16Rank: 16

阅读权限
70
游币
140
精品值
0
热心值
0
分享值
0
在线时间
1496 小时
注册时间
2015-1-4
最后登录
2019-12-9
发表于 2019-6-27 11:11:50 | 显示全部楼层
谢谢楼主上传分享好东西

签到天数: 140 天

[LV.7]常住居民III

14

主题

386

帖子

1145

积分

Rank: 8Rank: 8

阅读权限
50
游币
697
精品值
0
热心值
0
分享值
0
在线时间
62 小时
注册时间
2018-7-13
最后登录
2019-12-9
发表于 2019-6-27 11:24:47 | 显示全部楼层
非常难得!

签到天数: 205 天

[LV.7]常住居民III

12

主题

438

帖子

6614

积分

Rank: 16Rank: 16Rank: 16Rank: 16

阅读权限
70
游币
5745
精品值
45
热心值
0
分享值
33
在线时间
275 小时
注册时间
2019-4-28
最后登录
2019-12-9
发表于 2019-6-27 11:28:58 | 显示全部楼层
文件大小:535.55M,时长:1:51:56。

Audio
ID                             : 1
Format                         : AC-3
Format/Info                    : Audio Coding 3
Commercial name                : Dolby Digital
Codec ID                       : A_AC3
Duration                       : 1 h 51 min
Bit rate mode                  : Constant
Bit rate                       : 640 kb/s
Channel(s)                     : 6 channels
Channel layout                 : L R C LFE Ls Rs
Sampling rate                  : 48.0 kHz
Frame rate                     : 31.250 FPS (1536 SPF)
Bit depth                      : 16 bits
Compression mode               : Lossy
Stream size                    : 512 MiB (96%)
Language                       : Chinese
Service kind                   : Complete Main
Default                        : Yes
Forced                         : No
Count of elements              : 2562
Stream size                    : 14.7 MiB (3%)
Language                       : Chinese
Default                        : No
Forced                         : No


是不是这个版本?其他论坛也刚看到出来哈

签到天数: 187 天

[LV.7]常住居民III

0

主题

256

帖子

705

积分

Rank: 4

阅读权限
30
游币
400
精品值
0
热心值
0
分享值
0
在线时间
49 小时
注册时间
2019-1-5
最后登录
2019-12-9
发表于 2019-6-27 11:36:52 | 显示全部楼层
楼主发贴辛苦了,谢谢楼主的精彩分享!我觉得慢慢游是注册对了!

签到天数: 297 天

[LV.8]以坛为家I

0

主题

343

帖子

1399

积分

Rank: 8Rank: 8

阅读权限
50
游币
901
精品值
0
热心值
0
分享值
0
在线时间
155 小时
注册时间
2018-4-13
最后登录
2019-12-9
发表于 2019-6-27 11:40:39 | 显示全部楼层
谢谢楼主分享资源
回帖须知
本站严禁灌水回复以及讽刺辱骂分享者的行为,轻者扣分警告,重者直接永久封禁。发帖前请详读:点击进入 。以免永久封禁。
 懒得打字?点击快捷回复➔➔ 
您需要登录后才可以回帖 登录 | 我要注册

本版积分规则

小黑屋|手机版|慢慢游社区 ( 站务处理service@mmyfilm.com )

GMT+8, 2019-12-9 18:30 , Processed in 0.131198 second(s), 29 queries .

Powered by Discuz! X3.4

© 2001-2013 Comsenz Inc.

快速回复 返回顶部 返回列表