慢慢游社区

 找回密码
 我要注册
查看: 1159|回复: 97

[已封装] 【百度】[布达佩斯之恋].国德.Gloomy.Sunday.1999.BluRay.1080p.x264.AC3.2Audios.mkv

  [复制链接]

签到天数: 409 天

[LV.9]以坛为家II

136

主题

1672

帖子

1万

积分

Rank: 64Rank: 64Rank: 64Rank: 64Rank: 64Rank: 64Rank: 64Rank: 64Rank: 64Rank: 64Rank: 64Rank: 64Rank: 64Rank: 64Rank: 64Rank: 64

阅读权限
200
游币
11784
精品值
1415
热心值
0
分享值
712
在线时间
819 小时
注册时间
2018-4-8
最后登录
2019-6-16

活跃会员热心会员突出贡献分享达人音频组专属勋章

发表于 2019-2-26 23:12:57 | 显示全部楼层 |阅读模式
本帖最后由 马儿快点跑 于 2019-2-26 23:11 编辑

音轨来自片源网cmct版。视频用蓝光原盘自己压制,封装高码音轨。
慢慢游社区mmy.la_p2177762576.jpg
导演: 诺夫·舒贝尔
编剧: Nick Barkow / 诺夫·舒贝尔 / Ruth Toma
主演: 艾丽卡·莫露珊 / 约阿希姆·克罗尔 / 斯特法诺·迪奥尼斯 / 本·贝克 / 安德拉斯·巴林特
类型: 剧情 / 爱情
制片国家/地区: 德国 / 匈牙利
语言: 德语 / 英语 / 匈牙利语
上映日期: 1999-10-21
片长: 112 分钟 / Argentina: 113 分钟(Mar del Plata Film Festival)
又名: 忧郁的星期天 / 忧郁星期天 / 狂琴难了 / 黑色星期天 / Gloomy Sunday
IMDb链接: tt0155722



剧情简介:
        人们总是难以抗拒《忧郁星期天》的悲伤情调,原来这首歌与一段复杂凄美的爱情故事有关。上世纪30年代的匈牙利首都布达佩斯的一个餐馆里,美丽的伊洛娜(艾丽卡·莫露珊 Erika Marozsán 饰)同时被两个男人深爱着。一个是餐厅老板,另一个是钢琴师。三个人都并不愿意改变现况,打破平衡,伊洛娜同时拥有两个男人的爱而深感平静幸福。钢琴师为她创作出《忧郁星期天》,他和餐厅也因此一举成名。
  然而,汉斯的出现彻底毁灭了这一切。他曾经是一个无名小子,深深迷上《忧郁星期天》 的同时,更是成为伊洛娜的裙下之臣。汉斯向伊洛娜求婚,却被拒绝,满腔恨意的他如今成了军官,风光无限,正带着他蓄谋已久的复仇计划来到伊洛娜身边,给他们的生活以致命一击。爱、复仇与战争的故事,在布达佩斯纠结上演。

慢慢游社区mmy.la_[布达佩斯之恋].国德.Gloomy.Sunday.1999.BluRay.720p.x264.AC3.2Audios.mkv_20190226.jpg 慢慢游社区mmy.la_[布达佩斯之恋].国德.Gloomy.Sunday.1999.BluRay.720p.x264.AC3.2Audios.mkv_20190226.jpg 慢慢游社区mmy.la_[布达佩斯之恋].国德.Gloomy.Sunday.1999.BluRay.720p.x264.AC3.2Audios.mkv_20190226.jpg 慢慢游社区mmy.la_[布达佩斯之恋].国德.Gloomy.Sunday.1999.BluRay.720p.x264.AC3.2Audios.mkv_20190226.jpg 慢慢游社区mmy.la_[布达佩斯之恋].国德.Gloomy.Sunday.1999.BluRay.720p.x264.AC3.2Audios.mkv_20190226.jpg 慢慢游社区mmy.la_[布达佩斯之恋].国德.Gloomy.Sunday.1999.BluRay.720p.x264.AC3.2Audios.mkv_20190226.jpg 慢慢游社区mmy.la_[布达佩斯之恋].国德.Gloomy.Sunday.1999.BluRay.720p.x264.AC3.2Audios.mkv_20190226.jpg
General
Unique ID                   : 215580060344122849379401216304890008145 (0xA22F3598CF86356BA1CFC8601EBC5251)
Complete name               : F:\[布达佩斯之恋].国德.Gloomy.Sunday.1999.BluRay.1080p.x264.AC3.2Audios.mkv
Format                      : Matroska
Format version              : Version 4
File size                   : 3.98 GiB
Duration                    : 1 h 54 min
Overall bit rate            : 4 986 kb/s
Encoded date                : UTC 2019-02-26 14:29:59
Writing application         : mkvmerge v31.0.0 ('Dolores In A Shoestand') 64-bit
Writing library             : libebml v1.3.6 + libmatroska v1.4.9
Cover                       : Yes
Attachments                 : FZHei-B01S.TTF / 经典宋体简.ttf / cover.jpg


Video
ID                          : 1
Format                      : AVC
Format/Info                 : Advanced Video Codec
Format profile              : Main@L4
Format settings             : CABAC / 4 Ref Frames
Format settings, CABAC      : Yes
Format settings, ReFrames   : 4 frames
Codec ID                    : V_MPEG4/ISO/AVC
Duration                    : 1 h 54 min
Bit rate                    : 3 900 kb/s
Width                       : 1 916 pixels
Height                      : 1 036 pixels
Display aspect ratio        : 1.85:1
Frame rate mode             : Constant
Frame rate                  : 23.976 (24000/1001) FPS
Color space                 : YUV
Chroma subsampling          : 4:2:0
Bit depth                   : 8 bits
Scan type                   : Progressive
Bits/(Pixel*Frame)          : 0.082
Stream size                 : 3.10 GiB (78%)
Writing library             : x264 core 157 r2935 545de2f
Default                     : Yes
Forced                      : No
Color range                 : Limited
Color primaries             : BT.709
Transfer characteristics    : BT.709
Matrix coefficients         : BT.709


Audio #1
ID                          : 2
Format                      : AC-3
Format/Info                 : Audio Coding 3
Commercial name             : Dolby Digital
Codec ID                    : A_AC3
Duration                    : 1 h 54 min
Bit rate mode               : Constant
Bit rate                    : 640 kb/s
Channel(s)                  : 6 channels
Channel layout              : L R C LFE Ls Rs
Sampling rate               : 48.0 kHz
Frame rate                  : 31.250 FPS (1536 SPF)
Bit depth                   : 16 bits
Compression mode            : Lossy
Delay relative to video     : -5 ms
Stream size                 : 523 MiB (13%)
Title                       : 国语
Language                    : Chinese
Service kind                : Complete Main
Default                     : Yes
Forced                      : No


Audio #2
ID                          : 3
Format                      : AC-3
Format/Info                 : Audio Coding 3
Commercial name             : Dolby Digital
Codec ID                    : A_AC3
Duration                    : 1 h 54 min
Bit rate mode               : Constant
Bit rate                    : 448 kb/s
Channel(s)                  : 6 channels
Channel layout              : L R C LFE Ls Rs
Sampling rate               : 48.0 kHz
Frame rate                  : 31.250 FPS (1536 SPF)
Bit depth                   : 16 bits
Compression mode            : Lossy
Stream size                 : 366 MiB (9%)
Title                       : 德语
Language                    : German
Service kind                : Complete Main
Default                     : No
Forced                      : No


Text
ID                          : 4
Format                      : ASS
Codec ID                    : S_TEXT/ASS
Codec ID/Info               : Advanced Sub Station Alpha
Duration                    : 1 h 48 min
Bit rate                    : 72 b/s
Count of elements           : 929
Compression mode            : Lossless
Stream size                 : 57.7 KiB (0%)
Title                       : 中文
Language                    : Chinese
Default                     : Yes
Forced                      : No



下载地址(免费):
链接: https://pan.baidu.com/s/1ibvI4f2mNqNXdfHMIZ-fNg
游客,需要您回复成为VIP才能查看隐藏内容

评分

参与人数 8游币 +30 精品值 +15 分享值 +8 收起 理由
Aray + 1 好资源, 题外话, Audio复数不加s
shover + 1 高清的真好,如果能压制到2~2.5G就更好了.
ddiordna + 1
古藤书斋 + 1
ymyyzty + 30 + 15 慢慢游有你更精彩!
qingchun + 2
tjdz + 1 慢慢游有你更精彩!
东胡 + 1 慢慢游有你更精彩!

查看全部评分

楼主精华帖

签到天数: 314 天

[LV.8]以坛为家I

2

主题

1702

帖子

4105

积分

Rank: 16Rank: 16Rank: 16Rank: 16

阅读权限
70
游币
1724
精品值
64
热心值
0
分享值
2
在线时间
547 小时
注册时间
2018-6-22
最后登录
2019-6-16

活跃会员

发表于 2019-2-26 23:25:49 | 显示全部楼层
谢谢老师免费分享好电影。

签到天数: 1 天

[LV.1]初来乍到

0

主题

82

帖子

574

积分

Rank: 4

阅读权限
30
游币
467
精品值
0
热心值
0
分享值
0
在线时间
25 小时
注册时间
2018-9-16
最后登录
2019-6-16
发表于 2019-2-26 23:50:03 | 显示全部楼层
收藏收藏

签到天数: 1 天

[LV.1]初来乍到

0

主题

82

帖子

574

积分

Rank: 4

阅读权限
30
游币
467
精品值
0
热心值
0
分享值
0
在线时间
25 小时
注册时间
2018-9-16
最后登录
2019-6-16
发表于 2019-2-26 23:50:59 | 显示全部楼层
收藏收藏

签到天数: 447 天

[LV.9]以坛为家II

6

主题

1865

帖子

1万

积分

Rank: 32Rank: 32Rank: 32Rank: 32Rank: 32Rank: 32Rank: 32Rank: 32

阅读权限
90
游币
13583
精品值
208
热心值
0
分享值
8
在线时间
478 小时
注册时间
2018-1-8
最后登录
2019-6-16

活跃会员

发表于 2019-2-27 00:18:08 | 显示全部楼层
衷心感谢楼主辛苦上传无私分享欧洲电影《布达佩斯之恋》!

签到天数: 1159 天

[LV.10]以坛为家III

6

主题

2015

帖子

9007

积分

Rank: 16Rank: 16Rank: 16Rank: 16

阅读权限
70
游币
6266
精品值
59
热心值
0
分享值
7
在线时间
595 小时
注册时间
2015-1-8
最后登录
2019-6-16
发表于 2019-2-27 00:21:41 | 显示全部楼层
不错的帖子  多谢分享   

签到天数: 4 天

[LV.2]偶尔看看I

1

主题

70

帖子

655

积分

Rank: 4

阅读权限
30
游币
565
精品值
0
热心值
0
分享值
0
在线时间
20 小时
注册时间
2014-11-8
最后登录
2019-6-16
发表于 2019-2-27 00:55:28 | 显示全部楼层
感谢分享 稀有的欧洲片

签到天数: 890 天

[LV.10]以坛为家III

0

主题

1241

帖子

1705

积分

Rank: 8Rank: 8

阅读权限
50
游币
10
精品值
0
热心值
0
分享值
0
在线时间
454 小时
注册时间
2016-10-1
最后登录
2019-6-16
发表于 2019-2-27 01:01:56 | 显示全部楼层
楼主如此诚意的分享如此精彩的内容,必须赞!我想我是一天也不能离开慢慢游。

签到天数: 901 天

[LV.10]以坛为家III

8

主题

1254

帖子

8055

积分

Rank: 16Rank: 16Rank: 16Rank: 16

阅读权限
70
游币
6003
精品值
232
热心值
0
分享值
24
在线时间
286 小时
注册时间
2014-5-10
最后登录
2019-6-16
发表于 2019-2-27 01:19:27 | 显示全部楼层
这东西我收了!谢谢楼主!有慢慢游真好!

签到天数: 58 天

[LV.5]常住居民I

2

主题

611

帖子

1062

积分

Rank: 8Rank: 8

阅读权限
50
游币
83
精品值
44
热心值
0
分享值
11
在线时间
258 小时
注册时间
2016-1-6
最后登录
2019-6-17
发表于 2019-2-27 01:36:34 | 显示全部楼层
感谢大片!
回帖须知
本站严禁灌水回复以及讽刺辱骂分享者的行为,轻者扣分警告,重者直接永久封禁。发帖前请详读:点击进入 。以免永久封禁。
 懒得打字?点击快捷回复➔➔ 
您需要登录后才可以回帖 登录 | 我要注册

本版积分规则

小黑屋|手机版|慢慢游社区 ( 站务处理service@mmyfilm.com )

GMT+8, 2019-6-17 03:28 , Processed in 0.156117 second(s), 32 queries .

Powered by Discuz! X3.4

© 2001-2013 Comsenz Inc.

快速回复 返回顶部 返回列表