慢慢游社区

 找回密码
 我要注册
查看: 1533|回复: 157

[国英多音轨] 【百度网盘】[ 福尔摩斯探案集 ]国英.The Adventures of Sherlock Holmes.蓝光.1080P.x265.mkv

  [复制链接]

13

主题

1164

帖子

6649

积分

Rank: 16Rank: 16Rank: 16Rank: 16

阅读权限
70
游币
4963
精品值
0
热心值
0
分享值
54
在线时间
414 小时
注册时间
2018-4-8
最后登录
2018-11-15
发表于 2018-10-26 19:34:04 | 显示全部楼层 |阅读模式

国语版是dgg8018分享的,视频是1080p的日版蓝光。清晰度很好,体积还小。音轨全部重新对了口型,所以花的时间比较多。差不多有两个月才完成。第一季和第二季是英语外挂字幕,第三季到第七季是全部国语。

导演: 大卫·卡森
编剧: 阿瑟·柯南·道尔
主演: 杰瑞米·布雷特 / 大卫·布克 / 罗莎莉·威廉姆斯
类型: 剧情 / 悬疑 / 犯罪
制片国家/地区: 英国
语言: 英语 / 国语
首播: 1984-04-24(英国)
集数: 13
单集片长: 60分钟
又名: 福尔摩斯冒险史 / 福尔摩斯探案集之福尔摩斯冒险史
IMDb链接: tt0086661


福尔摩斯历险记的剧情简介
  天文学知识空白、文学知识空白、哲学知识空白、政治学不及格--这就是歇洛克·福尔摩斯。可是,这又有什么关系?对这位世界上最伟大的私家侦探来说,能否完成缜密绝伦的推理、能否厘清最扑朔迷离的案情、能否破解最匪夷所思的案件、能否挑战最惊险刺激的冒险……这些,才是真正值得他关注并能给他带来无限快感的东西。讹诈、勒索、谋杀、离奇命案……这一次,声名显赫的歇洛克·福尔摩斯仍将叼着他的老烟斗,一脸精明悍练的表情,带领我们步入又一个惊心动魄、神秘诡异的历险之旅……

S03E01 .mkv_20181026_183721.185.jpg S03E01 .mkv_20181026_184043.476.jpg S03E01 .mkv_20181026_184101.685.jpg S03E01 .mkv_20181026_184109.919.jpg S03E01 .mkv_20181026_184141.658.jpg
General
Complete name               : G:\侦探片\Sherlock Holmes (1984) Season 1-7 S01-S07 (1080p BluRay x265 HEVC 10bit AAC 2.0 RCVR)\Season 3\S03E01 .mkv
Format                      : Matroska
Format version              : Version 4
File size                   : 1 019 MiB
Duration                    : 53 min 3 s
Overall bit rate            : 2 684 kb/s
Encoded date                : UTC 2018-10-22 03:59:18
Writing application         : mkvmerge v20.0.0 ('I Am The Sun') 64-bit
Writing library             : libebml v1.3.5 + libmatroska v1.4.8

Video
ID                          : 1
Format                      : HEVC
Format/Info                 : High Efficiency Video Coding
Format profile              : Main 10@L4@Main
Codec ID                    : V_MPEGH/ISO/HEVC
Duration                    : 53 min 3 s
Bit rate                    : 2 399 kb/s
Width                       : 1 440 pixels
Height                      : 1 080 pixels
Display aspect ratio        : 4:3
Frame rate mode             : Constant
Frame rate                  : 23.976 (24000/1001) FPS
Color space                 : YUV
Chroma subsampling          : 4:2:0
Bit depth                   : 10 bits
Bits/(Pixel*Frame)          : 0.064
Stream size                 : 911 MiB (89%)
Writing library             : x265 2.7+12-98e48e8dd6ab:[Windows][MSVC 1900][64 bit] 10bit

Default                     : Yes
Forced                      : No

Audio #1
ID                          : 2
Format                      : AC-3
Format/Info                 : Audio Coding 3
Commercial name             : Dolby Digital
Codec ID                    : A_AC3
Duration                    : 53 min 3 s
Bit rate mode               : Constant
Bit rate                    : 192 kb/s
Channel(s)                  : 2 channels
Channel layout              : L R
Sampling rate               : 48.0 kHz
Frame rate                  : 31.250 FPS (1536 SPF)
Bit depth                   : 16 bits
Compression mode            : Lossy
Stream size                 : 72.9 MiB (7%)
Title                       : 国语
Service kind                : Complete Main
Default                     : Yes
Forced                      : No

Audio #2
ID                          : 3
Format                      : AAC LC
Format/Info                 : Advanced Audio Codec Low Complexity
Codec ID                    : A_AAC-2
Duration                    : 53 min 3 s
Bit rate                    : 89.9 kb/s
Channel(s)                  : 2 channels
Channel layout              : L R
Sampling rate               : 48.0 kHz
Frame rate                  : 46.875 FPS (1024 SPF)
Compression mode            : Lossy
Delay relative to video     : 20 ms
Stream size                 : 34.1 MiB (3%)
Title                       : 英语
Default                     : No
Forced                      : No

Text #1
ID                          : 4
Format                      : ASS
Codec ID                    : S_TEXT/ASS
Codec ID/Info               : Advanced Sub Station Alpha
Duration                    : 51 min 1 s
Bit rate                    : 112 b/s
Count of elements           : 808
Compression mode            : Lossless
Stream size                 : 42.2 KiB (0%)
Title                       : 中文
Default                     : Yes
Forced                      : No

Text #2
ID                          : 5
Format                      : ASS
Codec ID                    : S_TEXT/ASS
Codec ID/Info               : Advanced Sub Station Alpha
Duration                    : 51 min 1 s
Bit rate                    : 269 b/s
Count of elements           : 808
Compression mode            : Lossless
Stream size                 : 101 KiB (0%)
Title                       : 中英
Default                     : No
Forced                      : No

Text #3
ID                          : 6
Format                      : ASS
Codec ID                    : S_TEXT/ASS
Codec ID/Info               : Advanced Sub Station Alpha
Duration                    : 50 min 34 s
Bit rate                    : 122 b/s
Count of elements           : 805
Compression mode            : Lossless
Stream size                 : 45.3 KiB (0%)
Title                       : 英文
Default                     : No
Forced                      : No


具体目录
The Adventures of Sherlock Holmes (1984-1985)《福尔摩斯探案集:冒险史》
1984第一季
1. A Scandal in Bohemia — April 24, 1984. 波西米亚丑闻
2. The Dancing Men — May 1, 1984.跳舞的小人
3. The Naval Treaty — May 8, 1984.海军协定
4. The Solitary Cyclist — May 15, 1984.孤身骑车人
5. The Crooked Man — May 22, 1984.驼背人
6. The Speckled Band — May 29, 1984.斑点带子案
7. The Blue Carbuncle — June 5, 1984.蓝宝石案
1985 第二季
1. The Copper Beeches — August 25, 1985.铜山毛榉案
2. The Greek Interpreter — September 1, 1985.希腊译员
3. The Norwood Builder — September 8, 1985.诺伍德的建筑师
4. The Resident Patient — September 15, 1985.住院的病人
5. The Red-Headed League — September 22, 1985.红发会
6. The Final Problem — September 29, 1985.最后一案


The Return of Sherlock Holmes (1986-1988)《福尔摩斯探案集:归来记》
1986 第三季
1. The Empty House — July 9, 1986.空屋
2. The Abbey Grange — July 16, 1986.格兰其庄园
3. The Musgrave Ritual — July 23, 1986.马斯格雷夫典礼
4. The Second Stain — July 30, 1986.第二块血迹
5. The Man with the Twisted Lip — August 6, 1986.歪唇男人
6. The Priory School — August 13, 1986.贵族公学
7. The Six Napoleons — August 20, 1986.六座拿破仑半身像
1987 第四季
1. The Sign of Four — December 29, 1987. 四签名
1988 第四季
1. The Devil‘s Foot — April 6, 1988.魔鬼之足
2. Silver Blaze — April 13, 1988.银色马
3. Wisteria Lodge — April 20, 1988.威斯特里亚寓所
4. The Bruce-Partington Plans — April 27, 1988.布鲁斯廷计划
5. The Hound of the Baskervilles — August 31, 1988. (Feature-length episode).巴斯克维尔的猎犬


The Casebook of Sherlock Holmes (1991-1993)《福尔摩斯探案集:新探案》
1991第五季
1. The Disappearance of Lady Frances Carfax — February 21, 1991.弗朗西斯·卡法克斯女士的失踪
2. Thor Bridge — February 28, 1991.雷神桥之谜
3. Shoscombe Old Place — March 7, 1991.肖斯德姆别墅
4. The Boscombe Valley Mystery — March 14, 1991.博斯科姆比溪谷秘案
5. The Illustrious Client — March 21, 1991.显贵的主顾
6. The Creeping Man — March 28, 1991.爬行人
1992 第六季
1. The Master Blackmailer — January2, 1992.讹诈专家
1993 第六季
1. The Last Vampyre — January 27, 1993.最后的吸血鬼
2. The Eligible Bachelor — February 3, 1993.单身贵族


The Memoirs of Sherlock Holmes (1994)《福尔摩斯探案集:回忆录》


1994 第七季
1. The Three Gables — March 7, 1994.三角墙山庄
2. The Dying Detective — March 14, 1994. 临终的侦探
3. The Golden Pince-Nez — March 21, 1994. 金边夹鼻眼镜
4. The Red Circle — March 28, 1994.红圈会
5. The Mazarin Stone — April 4, 1994.皇冠宝石案
6. The Cardboard Box — April 11, 1994.硬纸盒子

购买主题 已有 130 人购买  本主题需向作者支付 30 游币 才能浏览,【如需账号免回复,无广告,免游币可购买VIP组
楼主精华帖

24

主题

3409

帖子

3万

积分

Rank: 64Rank: 64Rank: 64Rank: 64Rank: 64Rank: 64Rank: 64Rank: 64Rank: 64Rank: 64Rank: 64Rank: 64Rank: 64Rank: 64Rank: 64Rank: 64

阅读权限
150
游币
29015
精品值
98
热心值
0
分享值
0
在线时间
1089 小时
注册时间
2013-1-25
最后登录
2018-11-15

活跃会员热心会员突出贡献大叔勋章

发表于 2018-10-26 19:36:44 | 显示全部楼层
其实我一直觉得楼主是资源大神!慢慢游有你们更精彩!

34

主题

316

帖子

1万

积分

Rank: 32Rank: 32Rank: 32Rank: 32Rank: 32Rank: 32Rank: 32Rank: 32

阅读权限
90
游币
11884
精品值
45
热心值
0
分享值
50
在线时间
92 小时
注册时间
2018-7-18
最后登录
2018-11-15

最佳新人

发表于 2018-10-26 19:40:23 | 显示全部楼层
既然你诚信诚意的推荐了,那我就满怀欣喜的看看!

13

主题

345

帖子

1405

积分

Rank: 8Rank: 8

阅读权限
50
游币
701
精品值
144
热心值
0
分享值
1
在线时间
69 小时
注册时间
2016-5-15
最后登录
2018-11-14
发表于 2018-10-26 19:48:23 | 显示全部楼层
楼主发贴辛苦了,谢谢楼主的精彩分享!我觉得慢慢游是注册对了!

0

主题

433

帖子

1万

积分

Rank: 64Rank: 64Rank: 64Rank: 64Rank: 64Rank: 64Rank: 64Rank: 64Rank: 64Rank: 64Rank: 64Rank: 64Rank: 64Rank: 64Rank: 64Rank: 64

阅读权限
150
游币
10131
精品值
67
热心值
0
分享值
0
在线时间
1156 小时
注册时间
2014-11-26
最后登录
2018-11-15
发表于 2018-10-26 19:52:57 | 显示全部楼层
感谢发布  下载支持

0

主题

31

帖子

1783

积分

Rank: 8Rank: 8

阅读权限
50
游币
1747
精品值
0
热心值
0
分享值
0
在线时间
5 小时
注册时间
2018-10-26
最后登录
2018-11-15
发表于 2018-10-26 20:00:15 | 显示全部楼层
最喜欢的一部电视剧,强烈支持楼主了。

0

主题

888

帖子

2376

积分

Rank: 8Rank: 8

阅读权限
50
游币
1256
精品值
0
热心值
0
分享值
0
在线时间
232 小时
注册时间
2017-1-6
最后登录
2018-11-15
发表于 2018-10-26 20:00:28 | 显示全部楼层
好东西收了!谢谢楼主!这个帖子不回对不起自己!

15

主题

376

帖子

7040

积分

Rank: 16Rank: 16Rank: 16Rank: 16

阅读权限
70
游币
6503
精品值
0
热心值
0
分享值
17
在线时间
127 小时
注册时间
2018-6-6
最后登录
2018-11-15
发表于 2018-10-26 20:03:37 | 显示全部楼层
论坛不能没有像楼主这样的人才啊!当然我会一直支持慢慢游。

0

主题

42

帖子

956

积分

Rank: 4

阅读权限
30
游币
895
精品值
0
热心值
0
分享值
0
在线时间
19 小时
注册时间
2016-5-17
最后登录
2018-11-15
发表于 2018-10-26 20:07:53 | 显示全部楼层
万分感谢楼主,辛苦了

0

主题

1452

帖子

7819

积分

Rank: 16Rank: 16Rank: 16Rank: 16

阅读权限
70
游币
5966
精品值
55
热心值
0
分享值
0
在线时间
291 小时
注册时间
2014-11-8
最后登录
2018-11-14
发表于 2018-10-26 20:14:22 | 显示全部楼层
感谢分享国英双语福尔摩斯探案集!
回帖须知
本站严禁灌水回复以及讽刺辱骂分享者的行为,轻者扣分警告,重者直接永久封禁。发帖前请详读:点击进入 。以免永久封禁。
 懒得打字?点击快捷回复➔➔ 
您需要登录后才可以回帖 登录 | 我要注册

本版积分规则

小黑屋|手机版|慢慢游社区 ( 站务处理mmyfilm@qq.com )

GMT+8, 2018-11-15 23:00 , Processed in 0.119302 second(s), 35 queries .

Powered by Discuz! X3.4

© 2001-2013 Comsenz Inc.

快速回复 返回顶部 返回列表