慢慢游社区

 找回密码
 我要注册
查看: 1289|回复: 163

[国英多音轨] 【百度网盘】[ 牛津谋杀案 / 深度谜案 ] 国英.The.Oxford.Murders.2008.1080p.BluRay.H264.AAC-RARBG.mkv

  [复制链接]

13

主题

1164

帖子

6649

积分

Rank: 16Rank: 16Rank: 16Rank: 16

阅读权限
70
游币
4963
精品值
0
热心值
0
分享值
54
在线时间
414 小时
注册时间
2018-4-8
最后登录
2018-11-15
发表于 2018-10-15 12:11:14 | 显示全部楼层 |阅读模式
本帖最后由 马儿快点跑 于 2018-10-26 22:35 编辑


此资源免费失效不补。
国语版用磁力搜出来的,有好几处删减,重新调整匹配蓝光。



导演: 阿莱克斯·德·拉·伊格莱西亚
编剧: 阿莱克斯·德·拉·伊格莱西亚 / 豪尔赫·格力加耶切瓦利亚
主演: 伊莱贾·伍德 / 约翰·赫特 / 蕾欧诺·瓦特林 / 朱莉·考科斯 / 吉姆·卡特 /
类型: 悬疑 / 惊悚 / 犯罪
官方网站: www.clubcultura.com/clubcine/clubcineastas/delaiglesia/oxford
制片国家/地区: 西班牙 / 英国 / 法国
语言: 英语 / 国语
上映日期: 2011-12-31(中国大陆) / 2008-01-18(西班牙)
片长: 108分钟
又名: 牛津谋杀案 / 牛津杀手 / 破案算式 / 牛津谜案
IMDb链接: tt0488604
官方小站: 电影《深度谜案》


深度谜案的剧情简介   马丁(伊利亚•伍德 Elijah Wood 饰)为了追寻偶像逻辑数学家亚瑟(约翰•赫特 John Hurt 饰)的足迹,来到牛津大学深造。他发现,寄宿的房东伊格莱顿太太(安娜•玛西 Anna Massey 饰)仿佛跟亚瑟交往甚密,而她的养女贝丝(朱丽•考克斯 Julie Cox 饰)却总是故弄玄虚。后来,马丁结识了壁球伙伴洛娜(蕾欧诺•瓦特林 Leonor Watling 饰),两人堕入爱河……
  亚瑟演讲时,马丁作为唯一的提问者,引起了他的注意。后来,二人在房东家不期而遇,发现伊格莱顿太太被人谋杀。现场唯一的线索是一个圆圈。二人被警方带走协助调查。此后又有一些人离奇地死去,而且他们的死因似乎还暗含着某个数学定律……



[ 牛津谋杀案 ] 国英.The.Oxford.Murders.2008.1080p.BluRay.H264.AAC-RARBG.mkv_2018.jpg [ 牛津谋杀案 ] 国英.The.Oxford.Murders.2008.1080p.BluRay.H264.AAC-RARBG.mkv_2018.jpg [ 牛津谋杀案 ] 国英.The.Oxford.Murders.2008.1080p.BluRay.H264.AAC-RARBG.mkv_2018.jpg [ 牛津谋杀案 ] 国英.The.Oxford.Murders.2008.1080p.BluRay.H264.AAC-RARBG.mkv_2018.jpg [ 牛津谋杀案 ] 国英.The.Oxford.Murders.2008.1080p.BluRay.H264.AAC-RARBG.mkv_2018.jpg
General
Unique ID                   : 116347997545215495943263026203659279832 (0x5787CF2AA07183A04AAA9EA4BB771DD8)
Complete name               : G:\6 犯罪 悬疑\[ 牛津谋杀案 ] 国英.The.Oxford.Murders.2008.1080p.BluRay.H264.AAC-RARBG.mkv
Format                      : Matroska
Format version              : Version 4
File size                   : 2.40 GiB
Duration                    : 1 h 48 min
Overall bit rate            : 3 177 kb/s
Encoded date                : UTC 2018-10-14 08:48:43
Writing application         : mkvmerge v20.0.0 ('I Am The Sun') 64-bit
Writing library             : libebml v1.3.5 + libmatroska v1.4.8
Attachments                 : FZHei-B01S.TTF

Video
ID                          : 1
Format                      : AVC
Format/Info                 : Advanced Video Codec
Format profile              : High@L4.1
Format settings             : CABAC / 4 Ref Frames
Format settings, CABAC      : Yes
Format settings, ReFrames   : 4 frames
Codec ID                    : V_MPEG4/ISO/AVC
Duration                    : 1 h 48 min
Bit rate                    : 2 500 kb/s
Width                       : 1 920 pixels
Height                      : 816 pixels
Display aspect ratio        : 2.35:1
Frame rate mode             : Constant
Frame rate                  : 24.000 FPS
Color space                 : YUV
Chroma subsampling          : 4:2:0
Bit depth                   : 8 bits
Scan type                   : Progressive
Bits/(Pixel*Frame)          : 0.066
Stream size                 : 1.89 GiB (79%)
Writing library             : x264 core 148 r2638M 7599210
Encoding settings           : cabac=1 / ref=4 / deblock=1:-1:-1 / analyse=0x3:0x113 / me=umh / subme=9 / psy=1 / psy_rd=1.00:0.15 / mixed_ref=1 / me_range=24 / chroma_me=1 / trellis=2 / 8x8dct=1 / cqm=0 / deadzone=21,11 / fast_pskip=1 / chroma_qp_offset=-3 / threads=32 / lookahead_threads=4 / sliced_threads=0 / nr=0 / decimate=1 / interlaced=0 / bluray_compat=0 / constrained_intra=0 / bframes=3 / b_pyramid=2 / b_adapt=2 / b_bias=0 / direct=3 / weightb=1 / open_gop=0 / weightp=2 / keyint=250 / keyint_min=25 / scenecut=40 / intra_refresh=0 / rc_lookahead=50 / rc=2pass / mbtree=1 / bitrate=2500 / ratetol=1.0 / qcomp=0.60 / qpmin=0 / qpmax=69 / qpstep=4 / cplxblur=20.0 / qblur=0.5 / vbv_maxrate=31250 / vbv_bufsize=31250 / nal_hrd=none / filler=0 / ip_ratio=1.40 / aq=3:1.00
Default                     : Yes
Forced                      : No

Audio #1
ID                          : 2
Format                      : AC-3
Format/Info                 : Audio Coding 3
Commercial name             : Dolby Digital
Codec ID                    : A_AC3
Duration                    : 1 h 48 min
Bit rate mode               : Constant
Bit rate                    : 448 kb/s
Channel(s)                  : 2 channels
Channel layout              : L R
Sampling rate               : 48.0 kHz
Frame rate                  : 31.250 FPS (1536 SPF)
Bit depth                   : 16 bits
Compression mode            : Lossy
Stream size                 : 347 MiB (14%)
Title                       : 八一
Language                    : Chinese
Service kind                : Complete Main
Default                     : Yes
Forced                      : No

Audio #2
ID                          : 3
Format                      : AAC LC
Format/Info                 : Advanced Audio Codec Low Complexity
Codec ID                    : A_AAC-2
Duration                    : 1 h 48 min
Bit rate                    : 224 kb/s
Channel(s)                  : 6 channels
Channel layout              : C L R Ls Rs LFE
Sampling rate               : 48.0 kHz
Frame rate                  : 46.875 FPS (1024 SPF)
Compression mode            : Lossy
Stream size                 : 174 MiB (7%)
Title                       : 英语
Language                    : English
Default                     : No
Forced                      : No

Text
ID                          : 4
Format                      : ASS
Codec ID                    : S_TEXT/ASS
Codec ID/Info               : Advanced Sub Station Alpha
Duration                    : 1 h 42 min
Bit rate                    : 137 b/s
Count of elements           : 1688
Compression mode            : Lossless
Stream size                 : 103 KiB (0%)
Title                       : 中文
Language                    : Chinese
Default                     : Yes
Forced                      : No

下载地址:
链接:https://pan.baidu.com/s/1gbh_PDaCRR50f8F2u21Jbw
游客,如果您要查看本帖隐藏内容请回复,【如需账号免回复,无广告,免游币可购买VIP组




评分

参与人数 10游币 +50 分享值 +11 收起 理由
Hamlet0909 + 1 慢慢游有你更精彩!
ltwlay + 1
虎I坦克 + 1 慢慢游有你更精彩!
古藤书斋 + 1
kailulu + 1
Gmfdl + 1 资源很给力,我们很高兴!
zhwd5 + 1 慢慢游有你更精彩!
zhhlmh + 1 慢慢游有你更精彩!
thj + 1 资源很给力,我们很高兴!
qingchun + 50 + 2 慢慢游有你更精彩!

查看全部评分

楼主精华帖

0

主题

678

帖子

5374

积分

Rank: 16Rank: 16Rank: 16Rank: 16

阅读权限
70
游币
4525
精品值
0
热心值
0
分享值
0
在线时间
171 小时
注册时间
2015-3-7
最后登录
2018-11-15
发表于 2018-10-15 12:23:49 | 显示全部楼层
楼主太厉害了!这个资源都能找到,辛苦了!我觉得慢慢游真是个好地方!

0

主题

794

帖子

1160

积分

Rank: 8Rank: 8

阅读权限
50
游币
33
精品值
15
热心值
0
分享值
0
在线时间
303 小时
注册时间
2015-10-3
最后登录
2018-11-15
发表于 2018-10-15 12:23:58 | 显示全部楼层
很不错的电影,看看先。

119

主题

954

帖子

1万

积分

Rank: 32Rank: 32Rank: 32Rank: 32Rank: 32Rank: 32Rank: 32Rank: 32

阅读权限
90
游币
9460
精品值
633
热心值
1
分享值
42
在线时间
806 小时
注册时间
2018-7-9
最后登录
2018-11-15
发表于 2018-10-15 12:24:43 | 显示全部楼层
这资源给力哟

1

主题

612

帖子

780

积分

Rank: 4

阅读权限
30
游币
19
精品值
0
热心值
0
分享值
0
在线时间
149 小时
注册时间
2018-5-20
最后登录
2018-11-15
发表于 2018-10-15 12:42:09 | 显示全部楼层
这部电影没看过,谢谢!

0

主题

572

帖子

2700

积分

Rank: 8Rank: 8

阅读权限
50
游币
1949
精品值
0
热心值
0
分享值
0
在线时间
179 小时
注册时间
2017-10-1
最后登录
2018-11-15
发表于 2018-10-15 12:44:00 | 显示全部楼层
谢谢分享牛津谋杀案

0

主题

2083

帖子

9201

积分

Rank: 16Rank: 16Rank: 16Rank: 16

阅读权限
70
游币
5750
精品值
45
热心值
0
分享值
0
在线时间
1278 小时
注册时间
2016-2-9
最后登录
2018-11-15
发表于 2018-10-15 12:47:55 | 显示全部楼层
牛津大学谋杀案。

0

主题

25

帖子

128

积分

Rank: 4

阅读权限
30
游币
87
精品值
0
热心值
0
分享值
0
在线时间
16 小时
注册时间
2018-7-13
最后登录
2018-11-7
发表于 2018-10-15 12:50:00 | 显示全部楼层
感谢楼主分享
感谢楼主分享

7

主题

2564

帖子

4982

积分

Rank: 16Rank: 16Rank: 16Rank: 16

阅读权限
70
游币
1268
精品值
95
热心值
0
分享值
0
在线时间
960 小时
注册时间
2016-1-2
最后登录
2018-11-15
发表于 2018-10-15 13:03:40 | 显示全部楼层
《牛津谋杀案》,不知怎的。看到这个片名,我就想到阿加莎克里斯蒂的影片了。感谢朋友合成分享!

10

主题

701

帖子

2088

积分

Rank: 8Rank: 8

阅读权限
50
游币
887
精品值
6
热心值
0
分享值
0
在线时间
488 小时
注册时间
2015-11-12
最后登录
2018-11-13
发表于 2018-10-15 13:10:21 | 显示全部楼层
多谢国语资源分享
回帖须知
本站严禁灌水回复以及讽刺辱骂分享者的行为,轻者扣分警告,重者直接永久封禁。发帖前请详读:点击进入 。以免永久封禁。
 懒得打字?点击快捷回复➔➔ 
您需要登录后才可以回帖 登录 | 我要注册

本版积分规则

小黑屋|手机版|慢慢游社区 ( 站务处理mmyfilm@qq.com )

GMT+8, 2018-11-15 23:03 , Processed in 0.112137 second(s), 30 queries .

Powered by Discuz! X3.4

© 2001-2013 Comsenz Inc.

快速回复 返回顶部 返回列表