慢慢游社区

 找回密码
 我要注册
查看: 184|回复: 0

[电影] Z字特攻队 Attack Force Z (1982)中文字幕1.77G

[复制链接]

6

主题

994

帖子

6658

积分

Rank: 16Rank: 16Rank: 16Rank: 16

阅读权限
70
游币
5023
精品值
200
热心值
0
分享值
17
在线时间
207 小时
注册时间
2014-5-10
最后登录
2018-10-15
发表于 6 天前 | 显示全部楼层 |阅读模式
本帖最后由 雪山飞鹰 于 2018-10-10 16:06 编辑

分享7天

Z字特攻队 Attack Force Z (1982)
导演: 蒂姆·伯斯塔
编剧: Roger Marshall
主演: 梅尔·吉布森 / 山姆·尼尔 / 张艾嘉
类型: 剧情 / 动作 / 历史 / 战争
制片国家/地区: 澳大利亚 / 台湾
语言: 英语 / 日语 / 汉语普通话
上映日期: 1982-02-05(台湾)
片长: Australia: 93 分钟 / USA: 84 分钟 / West Germany: 93 分钟 / Argentina: 93 分钟
IMDb链接: tt0083591


剧情简介 · · · · · ·

  影片以二次大战的南太平洋战场为背景,讲的是一个美军救援小组与日军及当地人之间的一些恩怨情仇。梅尔以本色出镜,表现得出奇的冷静、沉着和睿智,迷倒了无数华人影迷。片中的其他演员还有尚未成名的山姆·尼尔及台湾才女张艾嘉。其实影片的剧情相当老套,倒是俐落明快的动作,以及演出者的魅力,在吸引观者驻足。该片可说是一部梅尔迷必看的影片。

链接: https://pan.baidu.com/s/1HkgFjqRBtgKk_vNhBehy0w
提取码:
游客,本付费内容需要支付 5精品值 才能浏览   如何获得“精品值”:点击此处 !购买


Complete name                            : D:\迅雷下载\Z字特攻队(中文字幕)Attack.Force.Z.1981.1080p.BluRay.H264.AAC-.mp4

Format                                   : MPEG-4
Format profile                           : Base Media
Codec ID                                 : isom (isom/iso2/avc1/mp41)
File size                                : 1.77 GiB
Duration                                 : 1 h 33 min
Overall bit rate                         : 2 715 kb/s
Writing application                      : Lavf58.12.100

Video
ID                                       : 1
Format                                   : AVC
Format/Info                              : Advanced Video Codec
Format profile                           : High@L4
Format settings                          : CABAC / 2 Ref Frames
Format settings, CABAC                   : Yes
Format settings, ReFrames                : 2 frames
Codec ID                                 : avc1
Codec ID/Info                            : Advanced Video Coding
Duration                                 : 1 h 33 min
Bit rate                                 : 2 486 kb/s
Width                                    : 1 920 pixels
Height                                   : 1 036 pixels
Display aspect ratio                     : 1.85:1
Frame rate mode                          : Constant
Frame rate                               : 23.976 (24000/1001) FPS
Color space                              : YUV
Chroma subsampling                       : 4:2:0
Bit depth                                : 8 bits
Scan type                                : Progressive
Bits/(Pixel*Frame)                       : 0.052
Stream size                              : 1.62 GiB (92%)

Audio
ID                                       : 2
Format                                   : AAC
Format/Info                              : Advanced Audio Codec
Format profile                           : LC
Codec ID                                 : mp4a-40-2
Duration                                 : 1 h 33 min
Bit rate mode                            : Constant
Bit rate                                 : 224 kb/s
Channel(s)                               : 2 channels
Channel positions                        : Front: L R
Sampling rate                            : 48.0 kHz
Frame rate                               : 46.875 FPS (1024 SPF)
Compression mode                         : Lossy
Stream size                              : 150 MiB (8%)
Default                                  : Yes
Alternate group                          : 1













Z字特攻队(中文字幕) Attack.Force.Z.1981.1080p.BluRay.H264.AAC-_20181010154845..jpg
Z字特攻队(中文字幕) Attack.Force.Z.1981.1080p.BluRay.H264.AAC-_20181010155014..jpg
Z字特攻队(中文字幕) Attack.Force.Z.1981.1080p.BluRay.H264.AAC-_20181010155038..jpg
Z字特攻队(中文字幕) Attack.Force.Z.1981.1080p.BluRay.H264.AAC-_20181010155107..jpg
Z字特攻队(中文字幕) Attack.Force.Z.1981.1080p.BluRay.H264.AAC-_20181010155135..jpg
Z字特攻队(中文字幕) Attack.Force.Z.1981.1080p.BluRay.H264.AAC-_20181010155642..jpg

评分

参与人数 1游币 +50 分享值 +2 收起 理由
qingchun + 50 + 2 慢慢游有你更精彩!

查看全部评分

楼主精华帖
回帖须知
本站严禁灌水回复以及讽刺辱骂分享者的行为,轻者扣分警告,重者直接永久封禁。发帖前请详读:点击进入 。以免永久封禁。
 懒得打字?点击快捷回复➔➔ 
您需要登录后才可以回帖 登录 | 我要注册

本版积分规则

小黑屋|手机版|慢慢游社区 ( 站务处理mmyfilm@qq.com )

GMT+8, 2018-10-16 03:43 , Processed in 0.099781 second(s), 33 queries .

Powered by Discuz! X3.4

© 2001-2013 Comsenz Inc.

快速回复 返回顶部 返回列表