慢慢游社区

 找回密码
 我要注册
查看: 548|回复: 58

[动作] [BT/磁力][疾速备战] 4K版 2019 美国 [X265 10bit 2160p 中英特效字幕][MKV 5.97G ]

  [复制链接]

签到天数: 27 天

[LV.4]偶尔看看III

18

主题

113

帖子

9094

积分

Rank: 16Rank: 16Rank: 16Rank: 16

阅读权限
70
游币
8762
精品值
5
热心值
0
分享值
73
在线时间
63 小时
注册时间
2014-9-21
最后登录
2019-9-21
发表于 2019-9-11 15:26:59 | 显示全部楼层 |阅读模式
慢慢游社区mmy.la_p2554224962.jpg
还是国外JOY小组压制的小体积4K版,画质很赞!!ASS特效字幕来自字幕库 ,YYeTs字幕组出品,不喜欢外挂可以下载后直接封装一下即可!
注:此版本是SDR版,非HDR版,没有支持HDR设备的朋友也可以完美播放!SDR小体积4K版首选JOY小组作品!性价比极高!体积虽小,但画质在4K电视上观看秒杀几十G容量的普通1080P蓝光原盘!

◎译  名 疾速备战/疾速追杀3/疾速逃亡/极速追杀:第三章/约翰·威克3/杀神3(港)/捍卫任务3:全面开战(台)
◎年  代 2019
◎国  家 美国
◎类  别 动作/犯罪/惊悚  
◎语  言 英语
◎片  长 2 h 11 min
◎导  演 查德·斯塔赫斯基 Chad Stahelski
◎主  演 基努·里维斯 Keanu Reeves
  哈莉·贝瑞 Halle Berry
  劳伦斯·菲什伯恩 Laurence Fishburne
  安杰丽卡·休斯顿 Anjelica Huston


◎简  介
因杀害杀手组织“高桌”(High Table)成员,约翰·威克被对方以1400万奖金悬赏追杀。全纽约的杀手蜂拥而至。
文件信息:
General
Unique ID                      : 99059605175049561062212047196194677126 (0x4A862F9CF29690F0BD950A223CA52186)
Complete name                  : H:\John Wick Chapter 3 Parabellum 2019  (2160p x265 10bit FS85 Joy).mkv
Format                         : Matroska
Format version                 : Version 4
File size                      : 5.97 GiB
Duration                       : 2 h 10 min
Overall bit rate               : 6 539 kb/s
Movie name                     : John Wick Chapter 3 Parabellum 2019  (2160p x265 10bit FS85 Joy)[UTR]
Encoded date                   : UTC 2019-09-07 20:16:07
Writing application            : mkvmerge v32.0.0 ('Astral Progressions') 64-bit
Writing library                : libebml v1.3.7 + libmatroska v1.5.0
Cover                          : Yes
Attachments                    : cover.jpg
Writing frontend               : StaxRip v2.0.2.0, Encoded by JoyBell


Video
ID                             : 1
Format                         : HEVC
Format/Info                    : High Efficiency Video Coding
Format profile                 : Main 10@L5@Main
Codec ID                       : V_MPEGH/ISO/HEVC
Duration                       : 2 h 10 min
Bit rate                       : 6 000 kb/s
Width                          : 3 840 pixels
Height                         : 1 600 pixels
Display aspect ratio           : 2.40:1
Frame rate mode                : Constant
Frame rate                     : 23.976 (24000/1001) FPS
Color space                    : YUV
Chroma subsampling             : 4:2:0
Bit depth                      : 10 bits
Bits/(Pixel*Frame)             : 0.041
Stream size                    : 5.48 GiB (92%)
Writing library                : x265 3.0_Au+24-4217e691387c:[Windows][GCC 9.1.1][64 bit] 10bit
Encoding settings              : rc=abr / bitrate=6000 / qcomp=0.50 / qpstep=4 / stats-write=0 / stats-read=2 / cplxblur=20.0 / qblur=0.5 / qpmax=69 / qpmin=0 / no-lossless / no-cu-lossless / no-hevc-aq / no-aq-motion / aq-mode=3 / aq-strength=0.80 / cbqpoffs=0 / crqpoffs=0 / ipratio=1.40 / pbratio=1.30 / psy-rd=2.20 / psy-rdoq=1.15 / deblock=0:0 / ref=4 / limit-refs=3 / limit-modes / bframes=8 / b-adapt=2 / bframe-bias=40 / b-pyramid / no-b-intra / weightp / no-weightb / keyint=250 / min-keyint=23 / rc-lookahead=80 / gop-lookahead=0 / scenecut=40 / scenecut-bias=0.05 / ctu=64 / min-cu-size=8 / me=3 / subme=3 / merange=57 / rd=4 / no-rd-refine / ssim-rd / dynamic-rd=0.00 / rdoq-level=2 / rdpenalty=0 / cutree / sao / limit-sao / no-sao-non-deblock / no-rect / no-amp / open-gop / max-tu-size=32 / tu-inter-depth=1 / tu-intra-depth=1 / limit-tu=0 / qg-size=32 / wpp / no-pmode / no-pme / no-psnr / ssim / no-tskip / constrained-intra / strong-intra-smoothing / max-merge=3 / nr-intra=0 / nr-inter=0 / input-csp=1 / input-res=3840x1600 / interlace=0 / total-frames=188123 / level-idc=0 / high-tier=1cpuid=1111039 / frame-threads=3 / numa-pools=12 / log-level=2 / uhd-bd=0 / lookahead-slices=4 / radl=0 / no-splice / no-intra-refresh / signhide / temporal-mvp / no-analyze-src-pics / early-skip / rskip / no-fast-intra / no-tskip-fast / splitrd-skip / zone-count=0 / no-strict-cbr / no-rc-grain / no-const-vbv / no-allow-non-conformance / no-repeat-headers / annexb / no-aud / no-hrd / info / hash=0 / no-temporal-layers / sar=0 / overscan=0 / videoformat=5 / range=0 / colorprim=2 / transfer=2 / colormatrix=2 / chromaloc=0 / display-window=0 / max-cll=0,0 / min-luma=0 / max-luma=1023 / log2-max-poc-lsb=8 / vui-timing-info / vui-hrd-info / slices=1 / no-opt-qp-pps / no-opt-ref-list-length-pps / multi-pass-opt-rps / no-opt-cu-delta-qp / no-hdr / no-hdr-opt / no-dhdr10-opt / no-idr-recovery-sei / analysis-reuse-level=10 / scale-factor=0 / refine-intra=0 / refine-inter=0 / refine-mv=0 / refine-ctu-distortion=0 / ctu-info=0 / no-lowpass-dct / refine-analysis-type=0 / copy-pic=1 / max-ausize-factor=1.0 / no-dynamic-refine / no-single-sei / no-svt / qp-adaptation-range=1.00
Default                        : Yes
Forced                         : No


Audio
ID                             : 2
Format                         : AAC LC
Format/Info                    : Advanced Audio Codec Low Complexity
Codec ID                       : A_AAC-2
Duration                       : 2 h 10 min
Bit rate                       : 517 kb/s
Channel(s)                     : 8 channels
Channel layout                 : C L R Ls Rs Lb Rb LFE
Sampling rate                  : 48.0 kHz
Frame rate                     : 46.875 FPS (1024 SPF)
Compression mode               : Lossy
Delay relative to video        : 9 ms
Stream size                    : 484 MiB (8%)
Language                       : English
Default                        : No
Forced                         : No


Text #1
ID                             : 3
Format                         : PGS
Muxing mode                    : zlib
Codec ID                       : S_HDMV/PGS
Codec ID/Info                  : Picture based subtitle format used on BDs/HD-DVDs
Duration                       : 1 h 59 min
Bit rate                       : 17.0 kb/s
Count of elements              : 1370
Stream size                    : 14.6 MiB (0%)
Language                       : English
Default                        : No
Forced                         : No
下载截图:
慢慢游社区mmy.la_捕获.JPG
注:本人用迅雷下载,速度非常不错,10分钟不到就下载完了!
影片截图:
注:截图已压缩,原始画质相当赞!
慢慢游社区mmy.la_imgX001.jpg 慢慢游社区mmy.la_imgX002.jpg 慢慢游社区mmy.la_imgX003.jpg 慢慢游社区mmy.la_imgX004.jpg
慢慢游社区mmy.la_imgX005.jpg 慢慢游社区mmy.la_imgX006.jpg
慢慢游社区mmy.la_imgX007.jpg 慢慢游社区mmy.la_imgX008.jpg
[free]BT种子:
磁力链接:
ASS特效中英字幕:
此处内容付费可见

向楼主支付【游币】或【升级VIP】才能显示 已有 42 人购买 

支付 10 游币 升级VIP
楼主精华帖

签到天数: 308 天

[LV.8]以坛为家I

0

主题

603

帖子

1282

积分

Rank: 8Rank: 8

阅读权限
50
游币
407
精品值
67
热心值
0
分享值
0
在线时间
138 小时
注册时间
2018-9-20
最后登录
2019-9-21

最佳新人

发表于 2019-9-11 15:36:38 | 显示全部楼层
楼主太厉害了!这个资源都能找到,辛苦了!我觉得慢慢游真是个好地方!

签到天数: 269 天

[LV.8]以坛为家I

0

主题

446

帖子

1019

积分

Rank: 8Rank: 8

阅读权限
50
游币
494
精品值
0
热心值
0
分享值
0
在线时间
79 小时
注册时间
2018-8-26
最后登录
2019-9-21
发表于 2019-9-11 15:43:22 | 显示全部楼层
楼主发贴辛苦了,谢谢楼主的精彩分享!我觉得慢慢游是注册对了!

签到天数: 571 天

[LV.9]以坛为家II

3

主题

1259

帖子

2261

积分

Rank: 8Rank: 8

阅读权限
50
游币
271
精品值
66
热心值
0
分享值
0
在线时间
600 小时
注册时间
2015-10-31
最后登录
2019-9-18
QQ
发表于 2019-9-11 16:02:38 | 显示全部楼层
这个前几部有么?

签到天数: 723 天

[LV.9]以坛为家II

4

主题

1739

帖子

3393

积分

Rank: 8Rank: 8

阅读权限
50
游币
930
精品值
28
热心值
0
分享值
10
在线时间
648 小时
注册时间
2016-6-1
最后登录
2019-9-21
发表于 2019-9-11 16:07:14 | 显示全部楼层
很完美啊

签到天数: 27 天

[LV.4]偶尔看看III

18

主题

113

帖子

9094

积分

Rank: 16Rank: 16Rank: 16Rank: 16

阅读权限
70
游币
8762
精品值
5
热心值
0
分享值
73
在线时间
63 小时
注册时间
2014-9-21
最后登录
2019-9-21
 楼主| 发表于 2019-9-11 16:18:10 | 显示全部楼层

第一部有Joy的小体积4K版,第二部还没有

签到天数: 401 天

[LV.9]以坛为家II

1

主题

557

帖子

3028

积分

Rank: 8Rank: 8

阅读权限
50
游币
2328
精品值
0
热心值
0
分享值
0
在线时间
143 小时
注册时间
2017-9-5
最后登录
2019-9-21
发表于 2019-9-11 16:30:42 | 显示全部楼层
楼主发贴辛苦了,谢谢楼主的精彩分享!我觉得慢慢游是注册对了!

签到天数: 10 天

[LV.3]偶尔看看II

0

主题

51

帖子

81

积分

Rank: 2

阅读权限
10
游币
22
精品值
0
热心值
0
分享值
0
在线时间
8 小时
注册时间
2019-9-5
最后登录
2019-9-20
发表于 2019-9-11 17:14:56 | 显示全部楼层
这东西我收了!谢谢楼主!有慢慢游真好!

签到天数: 65 天

[LV.6]常住居民II

0

主题

98

帖子

486

积分

Rank: 4

阅读权限
30
游币
365
精品值
0
热心值
0
分享值
0
在线时间
23 小时
注册时间
2017-9-10
最后登录
2019-9-21
发表于 2019-9-11 17:33:37 | 显示全部楼层
这个版本应该不错

签到天数: 756 天

[LV.10]以坛为家III

82

主题

1508

帖子

4万

积分

Rank: 64Rank: 64Rank: 64Rank: 64Rank: 64Rank: 64Rank: 64Rank: 64Rank: 64Rank: 64Rank: 64Rank: 64Rank: 64Rank: 64Rank: 64Rank: 64

阅读权限
110
游币
35484
精品值
2000
热心值
0
分享值
21
在线时间
1880 小时
注册时间
2017-8-7
最后登录
2019-9-21

活跃会员热心会员突出贡献

发表于 2019-9-11 17:52:33 | 显示全部楼层
这系列很棒,谢谢分享~
回帖须知
本站严禁灌水回复以及讽刺辱骂分享者的行为,轻者扣分警告,重者直接永久封禁。发帖前请详读:点击进入 。以免永久封禁。
 懒得打字?点击快捷回复➔➔ 
您需要登录后才可以回帖 登录 | 我要注册

本版积分规则

小黑屋|手机版|慢慢游社区 ( 站务处理service@mmyfilm.com )

GMT+8, 2019-9-21 11:12 , Processed in 0.169321 second(s), 41 queries .

Powered by Discuz! X3.4

© 2001-2013 Comsenz Inc.

快速回复 返回顶部 返回列表