慢慢游社区

 找回密码
 我要注册
查看: 471|回复: 6

[国语单音轨] 【百度】【美国】【二战】罪孽(国语中字)The.Debt.2010.BD1080p..H264.AAC【mkv/2.18g】

[复制链接]

签到天数: 93 天

[LV.6]常住居民II

5

主题

271

帖子

2541

积分

游-Ⅲ

Rank: 8Rank: 8

积分
2541
发表于 2018-4-16 21:16:13 | 显示全部楼层 |阅读模式
本帖最后由 chen581250 于 2018-4-16 21:46 编辑

罪孽The.Debt.2010

导演: 约翰·马登
编剧: 简·古德曼 / 马修·沃恩
主演: 海伦·米伦 / 萨姆·沃辛顿 / 杰西卡·查斯坦 / 加斯帕·克里斯滕森 / 马尔顿·索克斯 / 更多...
类型: 剧情 / 惊悚
制片国家/地区: 美国
语言: 英语
上映日期: 2010-09-04(多维尔美洲电影节) / 2011-08-31(美国)
片长: 114分钟
又名: 特务谜云(台) / 谍债(港) / L'Affaire Rachel Singer
IMDb链接: tt1226753

剧情简介

  由蕾切尔(杰西卡·查斯坦 Jessica Chastain 饰)、斯蒂芬(马尔顿·索克斯 Marton Csokas 饰)和大卫(萨姆·沃辛顿 Sam Worthington 饰)组成的以色列秘密特工小组曾经在效命年间叱咤风云,如今虽已全部退休,却仍然是特工后辈们的偶像。然而功成身退的蕾切尔(海伦·米伦 Helen Mirren 饰)却始终放不下一个心结,那就是30年前小组千辛万苦追查的一名纳粹战犯沃格尔(加斯帕·克里斯滕森 Jesper Christensen 饰)在关键时刻突然神秘失踪了,使得任务无疾而终。令人意想不到的是,如今小组成员竟然同时得到讯息说沃格尔又重现江湖,三人再次聚首,然而蕾切尔却在秘密调查中意外发现当年的追查报告存在造假嫌疑,这使她开始无法信任两位同事,而各自背后深藏的惊天秘密也如剥茧般渐渐浮出水面……
General
Unique ID                      : 237401632650969683169837678606073696207 (0xB299E42D5805F53493C3C4A6F5DB8FCF)
Complete name                  : 罪孽(国语中字)The.Debt.2010.1080p.BluRay.H264.AAC-RARBG.mkv
Format                         : Matroska
Format version                 : Version 4 / Version 2
File size                      : 2.19 GiB
Duration                       : 1 h 53 min
Overall bit rate               : 2 757 kb/s
Encoded date                   : UTC 2018-03-28 14:11:55
Writing application            : mkvmerge v7.5.0 ('Glass Culture') 64bit built on Jan  4 2015 16:48:44
Writing library                : libebml v1.3.1 + libmatroska v1.4.2

Video
ID                             : 1
Format                         : AVC
Format/Info                    : Advanced Video Codec
Format profile                 : High@L4.1
Format settings, CABAC         : Yes
Format settings, ReFrames      : 4 frames
Codec ID                       : V_MPEG4/ISO/AVC
Duration                       : 1 h 53 min
Bit rate                       : 2 500 kb/s
Width                          : 1 920 pixels
Height                         : 800 pixels
Display aspect ratio           : 2.40:1
Frame rate mode                : Constant
Frame rate                     : 23.976 (23976/1000) FPS
Color space                    : YUV
Chroma subsampling             : 4:2:0
Bit depth                      : 8 bits
Scan type                      : Progressive
Bits/(Pixel*Frame)             : 0.068
Stream size                    : 1.98 GiB (91%)
Writing library                : x264 core 152 r2851M ba24899
Encoding settings              : cabac=1 / ref=4 / deblock=1:-1:-1 / analyse=0x3:0x113 / me=umh / subme=9 / psy=1 / psy_rd=1.00:0.15 / mixed_ref=1 / me_range=24 / chroma_me=1 / trellis=2 / 8x8dct=1 / cqm=0 / deadzone=21,11 / fast_pskip=1 / chroma_qp_offset=-3 / threads=32 / lookahead_threads=4 / sliced_threads=0 / nr=0 / decimate=1 / interlaced=0 / bluray_compat=0 / constrained_intra=0 / bframes=3 / b_pyramid=2 / b_adapt=2 / b_bias=0 / direct=3 / weightb=1 / open_gop=0 / weightp=2 / keyint=250 / keyint_min=25 / scenecut=40 / intra_refresh=0 / rc_lookahead=50 / rc=2pass / mbtree=1 / bitrate=2500 / ratetol=1.0 / qcomp=0.60 / qpmin=0 / qpmax=69 / qpstep=4 / cplxblur=20.0 / qblur=0.5 / vbv_maxrate=31250 / vbv_bufsize=31250 / nal_hrd=none / filler=0 / ip_ratio=1.40 / aq=3:1.00
Default                        : Yes
Forced                         : No

Audio
ID                             : 2
Format                         : AC-3
Format/Info                    : Audio Coding 3
Format settings, Endianness    : Big
Codec ID                       : A_AC3
Duration                       : 1 h 53 min
Bit rate mode                  : Constant
Bit rate                       : 256 kb/s
Channel(s)                     : 2 channels
Channel positions              : Front: L R
Sampling rate                  : 48.0 kHz
Frame rate                     : 31.250 FPS (1536 spf)
Bit depth                      : 16 bits
Compression mode               : Lossy
Stream size                    : 208 MiB (9%)
Title                          : 央视
Language                       : Chinese
Service kind                   : Complete Main
Default                        : Yes
Forced                         : Yes

Text
ID                             : 3
Format                         : UTF-8
Codec ID                       : S_TEXT/UTF8
Codec ID/Info                  : UTF-8 Plain Text
Duration                       : 1 h 46 min
Bit rate                       : 27 b/s
Count of elements              : 825
Stream size                    : 21.1 KiB (0%)
Language                       : Chinese
Default                        : Yes
Forced                         : Yes 罪孽(国语中字)The.Debt.2010.1080p.BluRay.H264.AAC-RARBG.mkv_20180415_100131.25.jpg 罪孽(国语中字)The.Debt.2010.1080p.BluRay.H264.AAC-RARBG.mkv_20180415_100218.93.jpg 罪孽(国语中字)The.Debt.2010.1080p.BluRay.H264.AAC-RARBG.mkv_20180415_100856.51.jpg 罪孽(国语中字)The.Debt.2010.1080p.BluRay.H264.AAC-RARBG.mkv_20180415_100909.41.jpg 罪孽(国语中字)The.Debt.2010.1080p.BluRay.H264.AAC-RARBG.mkv_20180415_101408.75.jpg 罪孽(国语中字)The.Debt.2010.1080p.BluRay.H264.AAC-RARBG.mkv_20180415_101420.38.jpg 罪孽(国语中字)The.Debt.2010.1080p.BluRay.H264.AAC-RARBG.mkv_20180415_101527.57.jpg 罪孽(国语中字)The.Debt.2010.1080p.BluRay.H264.AAC-RARBG.mkv_20180415_101743.08.jpg

链接:https://pan.baidu.com/s/1EC9NwmCkC7LAvUr2y9t0uw
罪孽.rar (233 Bytes, 下载次数: 95, 售价: 20 游币)



上一篇:[法国/比利时][喜剧][疯狂特警队(大陆公映版)][WEB-1080P.MKV/1.31G][国语无字]
下一篇:[国语单音轨] 【百度】【美国】致命快感 The Quick and the Dead (1995)(国语)【mkv/2.37g】
回复

使用道具 举报

签到天数: 728 天

[LV.9]以坛为家II

0

主题

1583

帖子

3587

积分

游-Ⅳ

Rank: 16Rank: 16Rank: 16Rank: 16

积分
3587

活跃会员热心会员正太勋章大叔勋章爱心勋章

发表于 2018-4-16 23:15:43 | 显示全部楼层
这部电影没有看过。感谢分享。
回复 支持 反对

使用道具 举报

签到天数: 931 天

[LV.10]以坛为家III

24

主题

2586

帖子

2万

积分

游-侠

Rank: 9Rank: 9Rank: 9

积分
21232

活跃会员

发表于 2018-4-17 09:02:02 | 显示全部楼层
演员阵容很强大,多谢您分享国配版!
回复 支持 反对

使用道具 举报

签到天数: 577 天

[LV.9]以坛为家II

0

主题

1461

帖子

1630

积分

游-Ⅲ

Rank: 8Rank: 8

积分
1630
发表于 2018-4-17 09:56:48 | 显示全部楼层
够劲!几乎是一气呵成!为什么海报设计得这么反恐精英,太误导性了
回复 支持 反对

使用道具 举报

签到天数: 148 天

[LV.7]常住居民III

0

主题

718

帖子

1000

积分

游-Ⅲ

Rank: 8Rank: 8

积分
1000
发表于 2018-4-17 12:17:36 | 显示全部楼层
没看过!!谢谢楼主!!
回复 支持 反对

使用道具 举报

签到天数: 191 天

[LV.7]常住居民III

0

主题

438

帖子

1915

积分

游-Ⅲ

Rank: 8Rank: 8

积分
1915
发表于 2018-4-17 16:14:44 | 显示全部楼层
这个比央视版的长,完整版吧
回复 支持 反对

使用道具 举报

回帖须知
本站严禁灌水回复以及讽刺辱骂分享者的行为,轻者扣分警告,重者直接永久封禁。发帖前请详读:点击进入 。以免永久封禁。
您需要登录后才可以回帖 登录 | 我要注册

本版积分规则

小黑屋|手机版|Archiver|慢慢游社区 ( 站务处理mmyfilm@qq.com )

GMT+8, 2018-4-26 15:41 , Processed in 0.364822 second(s), 32 queries .

Powered by Discuz! X3

© 2001-2013 Comsenz Inc.

快速回复 返回顶部 返回列表